Словохотов К П - Английский язык Устные темы - 2016 pdf | Champions | Switch to full page

Скачать порно через торрент [RealityLovers.com] Sofi Goldfinger UnionPeer.org бесплатно онлайн HD качество

Скачать новое порно 2015, 2014 новинки через торрент UnionPeer.org

Порно торрент бесплатно ЮнионПир.орг

Статистика раздачи
Размер:  5.85 GB   |    Зарегистрирован:  1 месяц 17 дней   |    .torrent скачан:  87 раз   |   
Раздают:  3  
   
загрузка...
 
Автор Сообщение

Galfimbul

avatar Galfimbul


Имя актрисы: Sofi Goldfinger
Название ролика: Forget Her Not
Подсайт и сайт: RealityLovers.com

Год производства: 2017 г.
Жанр: Anal, Blonde, Blowjob, Cowgirl, Reverse Cowgirl, Russian, Teasing
Продолжительность: 27:42

Описание: Our gorgeous girlfriend Sofi Goldfinger has a birthday today. Wait, what? You forgot all about it? You''ve got to be kidding! Such a sweetheart as Sofi, expects just a tiny bit of attention on her special day and you just didn''t care enough to write it down at least once! Well Sofi is a gentle soul, she might get angry at first that you forget, but opts for a different treatment later. She gives you a show that you''ll never forget, and the sex that you''d die for any other day. After this, you certainly won''t forget anything anymore.

Тип HD видео: 1920p
Тип устройства: Oculus Rift / Vive
Тип 3D: SideBySide
Формат видео: MP4
Видео: H264 3840x1920 59.94fps 29897kbps
Аудио: AAC 48000Hz 6ch 317kbps
General
Complete name : FORGER HER NOT POV - Sofi Goldfinger Oculus Rift.mp4
Format : MPEG-4
Format profile : Base Media / Version 2
Codec ID : mp42
File size : 5.85 GiB
Duration : 27mn 41s
Overall bit rate mode : Variable
Overall bit rate : 30.2 Mbps
Encoded date : UTC 2017-11-08 04:13:18
Tagged date : UTC 2017-11-08 04:14:53
©TIM : 00;00;00;00
©TSC : 60000
©TSZ : 1001

Video
ID : 1
Format : AVC
Format/Info : Advanced Video Codec
Format profile : [email protected]
Format settings, CABAC : Yes
Format settings, ReFrames : 4 frames
Codec ID : avc1
Codec ID/Info : Advanced Video Coding
Duration : 27mn 41s
Bit rate : 29.9 Mbps
Width : 3 840 pixels
Height : 1 920 pixels
Display aspect ratio : 2.000
Frame rate mode : Constant
Frame rate : 59.940 fps
Standard : NTSC
Color space : YUV
Chroma subsampling : 4:2:0
Bit depth : 8 bits
Scan type : Progressive
Bits/(Pixel*Frame) : 0.068
Stream size : 5.78 GiB (99%)
Language : English
Encoded date : UTC 2017-11-08 04:13:18
Tagged date : UTC 2017-11-08 04:13:18
Color primaries : BT.709
Transfer characteristics : BT.709
Matrix coefficients : BT.709

Audio
ID : 2
Format : AAC
Format/Info : Advanced Audio Codec
Format profile : LC
Codec ID : 40
Duration : 27mn 41s
Source duration : 27mn 41s
Bit rate mode : Variable
Bit rate : 317 Kbps
Maximum bit rate : 451 Kbps
Channel(s) : 6 channels
Channel positions : Front: L C R, Side: L R, LFE
Sampling rate : 48.0 KHz
Compression mode : Lossy
Stream size : 62.9 MiB (1%)
Source stream size : 62.9 MiB (1%)
Language : English
Encoded date : UTC 2017-11-08 04:13:18
Tagged date : UTC 2017-11-08 04:13:18


Трекер:  [ 27-Июн-2018 00:16 ]

  

Скачать .torrent

Размер .torrent файла 15 KB


Размер: 5.85 GB
Хэш (hash) релиза: 220d718e269fa1b881801d3815e8f51b00258639

Торренты, похожие на [RealityLovers.com] Sofi Goldfinger скачать торрент

Форум Название Автор Размер S L Добавлен
Порноролики в 3D и Virtual Reality (VR) ·%· [RealityLovers.com] Sofi Goldfinger (Forget Her Not) [2017 г., Anal, Blonde, Blowjob, Cowgirl, Reverse Cowgirl, Russian, Teasing, SideBySide, 1440p] [Samsung Gear VR] Galfimbul 42084222423.92 GB 0 0 1529862412

20:46

24-Июн-18

Еще никто не оставлял запись к записи скачать торрент [RealityLovers.com] Sofi Goldfinger . Будь первым!

!Обратная связь