Garo - Goldstorm | Benedict Wong | now you see me 2

Скачать через торрент [iPad] Гномы в доме Gnome Alone бесплатно русская версия torrent активатор

Статистика раздачи
Размер:  1.4 GB   |    Зарегистрирован:  24 дня   |    .torrent скачан:  36 раз   |   
Раздают:  1  
   
загрузка...
 
Автор Сообщение

Galfimbul

avatar Galfimbul


Гномы в доме / Gnome Alone
-

5.770 / 10 5.60 / 10
Год выпуска: 2017
Страна: США
Жанр: Мультфильм
Продолжительность: 01:21:46

Перевод: Дублированный (iTunes)
Оригинальная аудиодорожка: Нет
Cубтитры: Нет
Режиссёр: Питер Лепениотис
Сценарий: Майкл Шварц, Зина Зэфлоу, Джаред Мика Херман
Продюсер: Даниэль Стерлинг, Джон Х. Уильямс, Джон Кристиансон
Композитор: Патрик Стамп
Художник: Джил Риммер
Монтаж: Роб Нил
В ролях: Бекки Джи, Джош Пек, Тара Стронг, Оливия Холт, Дэвид Кокнер, Джефф Данэм, Патрик Стамп, Нэш Гриер, Мэдисон Де Ла Гарза, Джордж Лопес

Сборы в России: $2 225 154

Мировая премьера: 2 ноября 2017
Премьера (РФ): 22 февраля 2018, «Вольга»

Цифровой релиз: 3 апреля 2018, «Вольга»

Описание: Переезжая в старинный особняк, никто даже не подозревал, что большой дом скрывает «маленькие» тайны. Садовые гномы, живущие тут, веками защищали наш мир от злобных троггов. У людей не останется выбора — они должны будут присоединиться к великой битве…
Качество исходника: WEB-DL 1080p (NNMClub)
Качество: WEB-DLRip
Тип: SD (576p)
Контейнер: M4V
Видео: H.264, 1024x560, 1.85:1, 2 200 Kbps, 23.825 fps

Аудио 1: Русский/Дублированный (iTunes), AAC / 2.0 / 128 Kbps / 48.0 KHz
Аудио 2: Украинский/Дублированный (iTunes), AAC / 2.0 / 128 Kbps / 48.0 KHz
Sort Name: Гномы в доме
XID: Apple:vendor_id:2017-989611
contentID: 1361832781
Copyright: © 2018 Volga Film
Screenwriters: Майкл Шварц, Зина Зэфлоу, Джаред Мика Херман
Producers: Даниэль Стерлинг, Джон Х. Уильямс, Джон Кристиансон
Director: Питер Лепениотис
Cast: Бекки Джи, Джош Пек, Тара Стронг, Оливия Холт, Дэвид Кокнер, Джефф Данэм, Патрик Стамп, Нэш Гриер, Мэдисон Де Ла Гарза, Джордж Лопес
Studio: 3QU Media
Rating: 133
Long Description: Переезжая в старинный особняк, никто даже не подозревал, что большой дом скрывает \"маленькие\" тайны. Садовые гномы, живущие тут, веками защищали наш мир от злобных троггов. У людей не останется выбора - они должны будут присоединиться к великой битве...
Description: Переезжая в старинный особняк, никто даже не подозревал, что большой дом скрывает \"маленькие\" тайны. Садовые гномы, живущие тут, веками защищали наш мир от злобных троггов. У людей не останется выбора - они должны будут присоединиться к великой битве...
Release Date: 2017-11-02T08:00:00Z
Genre: Comedy
Artist: Питер Лепениотис
Name: Гномы в доме
General
Complete name : /Users/imac/HandBrake/Gnome.Alone.(SD).(pk).m4v
Format : MPEG-4
Codec ID : M4V
File size : 1.40 GiB
Duration : 1h 21mn
Overall bit rate mode : Variable
Overall bit rate : 2 460 Kbps
Movie name : Гномы в доме
Performer : Питер Лепениотис
Director : Питер Лепениотис
Actor : Бекки Джи / Джош Пек / Тара Стронг / Оливия Холт / Дэвид Кокнер / Джефф Данэм / Патрик Стамп / Нэш Гриер / Мэдисон Де Ла Гарза / Джордж Лопес
Screenplay by : Майкл Шварц / Зина Зэфлоу / Джаред Мика Херман
Producer : Даниэль Стерлинг / Джон Х. Уильямс / Джон Кристиансон
Production studio : 3QU Media
Genre : Comedy
ContentType : Short Film
Description : Переезжая в старинный особняк, никто даже не подозревал, что большой дом скрывает \"маленькие\" тайны. Садовые гномы, живущие тут, веками защищали наш мир от злобных троггов. У людей не останется выбора - они должны будут присоединиться к великой битве...
Recorded date : UTC 2017-11-02 08:00:00
Encoded date : UTC 2018-06-26 16:53:25
Tagged date : UTC 2018-06-26 17:33:41
Copyright : © 2018 Volga Film
Cover : Yes
Rating : None
Title/Sort : Гномы в доме
LongDescription : Переезжая в старинный особняк, никто даже не подозревал, что большой дом скрывает \"маленькие\" тайны. Садовые гномы, живущие тут, веками защищали наш мир от злобных троггов. У людей не останется выбора - они должны будут присоединиться к великой битве...
AppleStoreCatalogID : 1361832781
Vendor : Apple:vendor_id:2017-989611
ContentRating : ru-movie|6+|150|

Video #1
ID : 1
Format : AVC
Format/Info : Advanced Video Codec
Format profile : [email protected]
Format settings, CABAC : Yes
Format settings, ReFrames : 9 frames
Codec ID : avc1
Codec ID/Info : Advanced Video Coding
Duration : 1h 21mn
Source duration : 1h 21mn
Bit rate : 2 200 Kbps
Width : 1 024 pixels
Height : 560 pixels
Display aspect ratio : 1.85:1
Frame rate mode : Variable
Frame rate : 23.825 fps
Minimum frame rate : 18.112 fps
Maximum frame rate : 23.981 fps
Color space : YUV
Chroma subsampling : 4:2:0
Bit depth : 8 bits
Scan type : Progressive
Bits/(Pixel*Frame) : 0.161
Stream size : 1.26 GiB (89%)
Source stream size : 1.26 GiB (89%)
Title : Main Program
Writing library : x264 core 155 r2893 b00bcaf
Encoding settings : cabac=1 / ref=9 / deblock=1:0:0 / analyse=0x3:0x113 / me=umh / subme=9 / psy=1 / psy_rd=1.00:0.00 / mixed_ref=1 / me_range=32 / chroma_me=1 / trellis=1 / 8x8dct=1 / cqm=0 / deadzone=21,11 / fast_pskip=1 / chroma_qp_offset=-2 / threads=17 / lookahead_threads=1 / sliced_threads=0 / nr=0 / decimate=1 / interlaced=0 / bluray_compat=0 / constrained_intra=0 / bframes=6 / b_pyramid=2 / b_adapt=2 / b_bias=0 / direct=1 / weightb=1 / open_gop=0 / weightp=2 / keyint=240 / keyint_min=24 / scenecut=40 / intra_refresh=0 / rc_lookahead=40 / rc=2pass / mbtree=1 / bitrate=2200 / ratetol=1.0 / qcomp=0.60 / qpmin=0 / qpmax=69 / qpstep=4 / cplxblur=20.0 / qblur=0.5 / ip_ratio=1.40 / aq=1:1.00
Language : English
Encoded date : UTC 2018-06-26 16:53:25
Tagged date : UTC 2018-06-26 16:53:29
Color range : Limited
Color primaries : BT.709
Transfer characteristics : BT.709
Matrix coefficients : BT.709

Video #2
ID : 5
Format : JPEG
Codec ID : jpeg
Duration : 1h 21mn
Bit rate mode : Variable
Bit rate : 573 bps
Width : 640 pixels
Height : 350 pixels
Display aspect ratio : 1.85:1
Frame rate mode : Variable
Frame rate : 0.002 fps
Minimum frame rate : 0.001 fps
Maximum frame rate : 0.002 fps
Color space : YUV
Chroma subsampling : 4:2:0
Bit depth : 8 bits
Compression mode : Lossy
Bits/(Pixel*Frame) : 1.279
Stream size : 350 KiB (0%)
Title : Chapter Images
Language : English
Encoded date : UTC 2018-06-26 16:55:55
Tagged date : UTC 2018-06-26 16:55:55

Audio #1
ID : 2
Format : AAC
Format/Info : Advanced Audio Codec
Format profile : LC
Codec ID : 40
Duration : 1h 21mn
Source duration : 1h 21mn
Bit rate mode : Variable
Bit rate : 126 Kbps
Maximum bit rate : 185 Kbps
Channel(s) : 2 channels
Channel positions : Front: L R
Sampling rate : 48.0 KHz
Compression mode : Lossy
Stream size : 73.6 MiB (5%)
Source stream size : 73.6 MiB (5%)
Title : Russian Stereo
Language : Russian
Encoded date : UTC 2018-06-26 16:53:25
Tagged date : UTC 2018-06-26 16:53:32

Audio #2
ID : 3
Format : AAC
Format/Info : Advanced Audio Codec
Format profile : LC
Codec ID : 40
Duration : 1h 21mn
Source duration : 1h 21mn
Bit rate mode : Variable
Bit rate : 125 Kbps
Maximum bit rate : 188 Kbps
Channel(s) : 2 channels
Channel positions : Front: L R
Sampling rate : 48.0 KHz
Compression mode : Lossy
Stream size : 73.2 MiB (5%)
Source stream size : 73.2 MiB (5%)
Title : Ukrainian Stereo
Language : Ukrainian
Encoded date : UTC 2018-06-26 16:53:25
Tagged date : UTC 2018-06-26 16:53:32

Menu #1
00:00:00.000 : 1
00:06:59.920 : 2
00:14:00.320 : 3
00:21:03.240 : 4
00:28:19.120 : 5
00:36:40.200 : 6
00:44:30.560 : 7
00:51:53.560 : 8
00:59:42.399 : 9
01:07:41.840 : 10

Menu #2
ID : 4
Codec ID : text
Duration : 1h 21mn
Language : English
Encoded date : UTC 2018-06-26 16:55:52
Tagged date : UTC 2018-06-26 16:55:52
00:00:00.000 : 1
00:06:59.920 : 2
00:14:00.320 : 3
00:21:03.240 : 4
00:28:19.120 : 5
00:36:40.200 : 6
00:44:30.560 : 7
00:51:53.560 : 8
00:59:42.399 : 9
01:07:41.840 : 10
Bit rate mode : VBR
x264 [info]: frame I:1180  Avg QP:10.81  size: 99667
x264 [info]: frame P:34364 Avg QP:13.83  size: 22920
x264 [info]: frame B:81340 Avg QP:16.43  size:  5457
x264 [info]: consecutive B-frames:  3.9% 10.8% 10.0% 59.2% 11.4%  3.6%  1.2%
x264 [info]: mb I  I16..4:  8.6% 61.2% 30.2%
x264 [info]: mb P  I16..4:  2.2%  7.1%  2.2%  P16..4: 35.5% 23.0% 15.2%  0.0%  0.0%    skip:14.8%
x264 [info]: mb B  I16..4:  0.2%  0.6%  0.2%  B16..8: 30.9%  8.2%  2.1%  direct: 4.6%  skip:53.2%  L0:41.3% L1:47.1% BI:11.6%
x264 [info]: 8x8 transform intra:61.2% inter:69.7%
x264 [info]: coded y,uvDC,uvAC intra: 76.2% 88.6% 75.9% inter: 19.5% 23.2% 6.4%
x264 [info]: i16 v,h,dc,p: 22% 16%  9% 52%
x264 [info]: i8 v,h,dc,ddl,ddr,vr,hd,vl,hu: 13% 12% 10%  8% 10% 11% 11% 11% 13%
x264 [info]: i4 v,h,dc,ddl,ddr,vr,hd,vl,hu: 12% 11%  5%  9% 13% 13% 13% 10% 13%
x264 [info]: i8c dc,h,v,p: 41% 24% 19% 16%
x264 [info]: Weighted P-Frames: Y:3.7% UV:2.7%
x264 [info]: ref P L0: 58.0%  6.5% 14.7%  6.3%  4.2%  3.3%  2.9%  2.0%  1.8%  0.2%  0.0%
x264 [info]: ref B L0: 75.7% 10.6%  5.3%  2.6%  1.8%  1.7%  1.9%  0.4%
x264 [info]: ref B L1: 95.6%  4.4%
x264 [info]: kb/s:2199.90

Релиз подготовлен для просмотра на Apple TV, iPad, iPhone, iPod Touch.
Для просмотра данного релиза на компьютере с ОС Windows рекомендуется использовать VLC media player

Трекер:  [ 26-Июн-2018 21:06 ]

  

Скачать .torrent

Размер .torrent файла 28 KB


Размер: 1.4 GB
Хэш (hash) релиза: 7ceb219c217942e4c870550647d5dbbe33632fc7

Еще никто не оставлял запись к записи скачать торрент [iPad] Гномы в доме Gnome Alone . Будь первым!

!Обратная связь