The Age of Shadows (2016) Neue link: 2017/08/19 Views: 3006 Länge: 140 min IMDB rating: 7.2 Uploaded: 2017/08/02 The Age of Shadows 2016 | Kaya Scodelario | ZAYN Taylor Swift

Скачать через торрент Знаменитый детектив Конан: Загадка снайпера бесплатно Аниме Все серии на русском torrent

Статистика раздачи
Размер:  1.27 GB   |    Зарегистрирован:  1 месяц 22 дня   |    .torrent скачан:  36 раз   |   
Раздают:  1  
   
загрузка...
 
Автор Сообщение

Galfimbul

avatar Galfimbul


Знаменитый детектив Конан: Загадка снайпера (фильм 18)

Страна: Япония
Жанр: Приключения, детектив
Продолжительность: полнометражный фильм, 110 мин.
Премьера: 19.04.2014
Озвучивание: Отсутствует
По переводу: ShinkaDan
- Перевод с японского: AnjiJa
- Редакция, тайминг, оформление: Natan
- Редакторские правки: Tami, Язва и Сушка+
Режиссер: Сидзуно Кобун
Автор оригинала: Аояма Госё
Описание: Конан и компания во время летних каникул отправляются в токийскую телевизионную башню "Небесное дерево", но на их глазах снайпер убивает человека. Неужели это проделки "Организации" или таки просто рядовое дело? Все окончательно запутывается, когда в погоню за преступником включаются Сера Масуми, Окия Субару и ФБР, а преступник продолжает убивать людей, среди которых есть и подозреваемые...
Качество: BDRip (720p)
Тип релиза: Без хардсаба
Формат видео: mp4
Автор рипа: [Ohys-Raws]
Видео: x264 (8 бит), 1280x720 (16:9), 23,976 кадра/сек, ~ 1441 Кбит/сек
Аудио:
AAC, 2 канала (стерео), 48000Hz, ~250 Кбит/сек; JAP (в составе контейнера)
Дополнительная информация:
Это авторская раздача, озвучка будет позже.
<div class="sp-wrap">
<div class="sp-head folded">Mediainfo</div>
<div class="sp-body">Общее
Полное имя : K:\Detective Conan RAW\Detective Conan movie 18\[ShinkaDan] Meitantei Conan Ijigen no Sniper [720p]\[Ohys-Raws] Detective Conan Movie 18 The Sniper from Another Dimension (BD 1280x720 x264 AAC).mp4
Формат : MPEG-4
Профиль формата : Base Media
Идентификатор кодека : isom
Размер файла : 1,27 Гбайт
Продолжительность : 1 ч. 50 м.
Режим общего битрейта : Переменный
Общий поток : 1646 Кбит/сек
Дата кодирования : UTC 2014-11-28 14:46:38
Дата пометки : UTC 2014-11-28 14:46:38

Видео
Идентификатор : 1
Формат : AVC
Формат/Информация : Advanced Video Codec
Профиль формата : [email protected]
Параметр CABAC формата : Да
Параметр ReFrames формата : 5 кадров
Идентификатор кодека : avc1
Идентификатор кодека/Информация : Advanced Video Coding
Продолжительность : 1 ч. 50 м.
Битрейт : 1442 Кбит/сек
Максимальный битрейт : 13,3 Мбит/сек
Ширина : 1280 пикселей
Высота : 720 пикселей
Соотношение сторон : 16:9
Режим частоты кадров : Постоянный
Частота кадров : 23,976 кадра/сек
Цветовое пространство : YUV
Субдискретизация насыщенности : 4:2:0
Битовая глубина : 8 бит
Тип развёртки : Прогрессивная
Бит/(Пиксели*Кадры) : 0.065
Размер потока : 1,11 Гбайт (88%)
Библиотека кодирования : x264 core 128
Настройки программы : cabac=1 / ref=6 / deblock=1:0:0 / analyse=0x1:0x111 / me=umh / subme=9 / psy=1 / psy_rd=1.00:0.00 / mixed_ref=1 / me_range=32 / chroma_me=1 / trellis=1 / 8x8dct=0 / cqm=0 / deadzone=21,11 / fast_pskip=1 / chroma_qp_offset=-2 / threads=12 / lookahead_threads=2 / sliced_threads=0 / nr=0 / decimate=1 / interlaced=0 / bluray_compat=1 / constrained_intra=0 / bframes=3 / b_pyramid=1 / b_adapt=1 / b_bias=0 / direct=1 / weightb=1 / open_gop=0 / weightp=1 / keyint=250 / keyint_min=1 / scenecut=40 / intra_refresh=0 / rc_lookahead=40 / rc=crf / mbtree=1 / crf=20.0 / qcomp=0.60 / qpmin=0 / qpmax=69 / qpstep=4 / ip_ratio=1.40 / aq=1:1.00
Дата кодирования : UTC 2014-11-28 13:49:40
Дата пометки : UTC 2014-11-28 14:46:42

Аудио
Идентификатор : 2
Формат : AAC
Формат/Информация : Advanced Audio Codec
Профиль формата : LC
Идентификатор кодека : 40
Продолжительность : 1 ч. 50 м.
Вид битрейта : Переменный
Битрейт : 200 Кбит/сек
Максимальный битрейт : 274 Кбит/сек
Каналы : 2 канала
Расположение каналов : Front: L R
Частота : 48,0 КГц
Метод сжатия : С потерями
Задержка видео : 83 мс.
Размер потока : 158 Мбайт (12%)
Язык : Japanese
Дата кодирования : UTC 2014-11-28 13:49:40
Дата пометки : UTC 2014-11-28 14:46:42
File: K:\Detective Conan RAW\Detective Conan movie 18\[ShinkaDan] Meitantei Conan Ijigen no Sniper [720p]\[Ohys-Raws] Detective Conan Movie 18 The Sniper from Another Dimension (BD 1280x720 x264 AAC).mp4
0.D: 01:50:17 (6616.61)
1.V: 1280x720 (16:9) H264/AVC 1441.5 kbps 23.976 fps [avc1]
2.A: Japanese AAC 200.306 kbps Stereo [A_AAC/MPEG4/LC]
</div>
</div>

Трекер:  [ 26-Июн-2018 19:30 ]

  

Скачать .torrent

Размер .torrent файла 13 KB


Размер: 1.27 GB
Хэш (hash) релиза: 074e38859fa8eeeda771ab9b5d01a65df4e492f8
Подписка на обновления:

Еще никто не оставлял запись к записи скачать торрент Знаменитый детектив Конан: Загадка снайпера . Будь первым!

!Обратная связь