Loulou Graffiti.1992.vff.webdl.720p.x264.aac.-syntax- | Sabagebu! | Watch Movie

Скачать через торрент [iPad] Я сражаюсь с великанами I Kill Giants бесплатно русская версия torrent активатор

Статистика раздачи
Размер:  1.83 GB   |    Зарегистрирован:  20 дней   |    .torrent скачан:  20 раз   |   
Раздают:  1  
   
загрузка...
 
Автор Сообщение

Galfimbul

avatar Galfimbul


Я сражаюсь с великанами / I Kill Giants
«Основано на величайшем комиксе «Я убиваю великанов»

6.173 / 10 6.40 / 10
Год выпуска: 2017
Страна: США
Жанр: Фэнтези, триллер, драма
Продолжительность: 01:46:30

Перевод: Дублированный (iTunes)
Оригинальная аудиодорожка: Есть
Cубтитры: Русские (2xfull), Английские
Режиссёр: Андерс Вальтер Хансен
Сценарий: Джо Келли, Х. М. Кэн Ниимура
Продюсер: Джо Келли, Анна Барнатан, Майкл Барнатан
Оператор: Расмус Дж. Хейз
Композитор: Лорен Перез
Художник: Сьюзи Каллен, Жиль Балабо, Тамара Конбой
Монтаж: Ларс Уиссинг
В ролях: Мэдисон Вульф, Зои Салдана, Имоджен Путс, Сидни Вэйд, Рори Джексон, Аллана О’Коннор, Майя Питерс, Арт Паркинсон, Дженнифер Эль, Дон Вичерли

Бюджет: $15 100 000
Сборы в России: $171 010

Мировая премьера: 9 сентября 2017
Премьера (РФ): 29 марта 2018, «Экспонента»

Описание: Барбара Торсон — особенная, ее уникальный талант — это возможность видеть мир великанов. И этот мир угрожает людям. Барбаре никто не верит, но она единственная, кто может спасти человечество от исчезновения. Она объявляет великанам войну и готовится к главному сражению в своей жизни.
Качество исходника: WEB-DL 1080p (NNMClub)
Качество: WEB-DLRip
Тип: SD (576p)
Контейнер: M4V
Видео: H.264, 1024x432, 2.40:1, 2 200 Kbps, 23.976 fps

Аудио 1: Русский/Дублированный (iTunes), AAC / 2.0 / 128 Kbps / 48.0 KHz
Аудио 2: Английский/Оригинальная дорожка , AAC / 2.0 / 128 Kbps / 48.0 KHz

Субтитры 1-2: Русские полные (2xfull)
Субтитры 3: Английские полные
Sort Name: I Kill Giants
XID: Apple:vendor_id:2017-924989
contentID: 1349616510
Copyright: © 2017 I Kill Giants Films Limited
Screenwriters: Джо Келли, Х. М. Кэн Ниимура
Producers: Джо Келли, Анна Барнатан, Майкл Барнатан
Director: Андерс Вальтер Хансен
Cast: Мэдисон Вульф, Зои Салдана, Имоджен Путс, Сидни Вэйд, Рори Джексон, Аллана О’Коннор, Майя Питерс, Арт Паркинсон, Дженнифер Эль, Дон Вичерли
Studio: RLJE Fims
Rating: 1
Long Description: Барбара Торсон - особенная, ее уникальный талант - это возможность видеть мир великанов. И этот мир угрожает людям. Барбаре никто не верит, но она единственная, кто может спасти человечество от исчезновения. Она объявляет великанам войну и готовится к главному сражению в своей жизни.
Description: Барбара Торсон - особенная, ее уникальный талант - это возможность видеть мир великанов. И этот мир угрожает людям. Барбаре никто не верит, но она единственная, кто может спасти человечество от исчезновения. Она объявляет великанам войну и готовится к главному сражению в своей жизни.
Release Date: 2017-09-09T08:00:00Z
Genre: Action & Adventure
Artist: Anders Walter
Name: I Kill Giants
General
Complete name : /Users/imac/HandBrake/I.Kill.Giants.2018.(SD).(pk).m4v
Format : MPEG-4
Codec ID : M4V
File size : 1.83 GiB
Duration : 1h 46mn
Overall bit rate mode : Variable
Overall bit rate : 2 459 Kbps
Movie name : I Kill Giants
Performer : Anders Walter
Director : Андерс Вальтер Хансен
Actor : Мэдисон Вульф / Зои Салдана / Имоджен Путс / Сидни Вэйд / Рори Джексон / Аллана О’Коннор / Майя Питерс / Арт Паркинсон / Дженнифер Эль / Дон Вичерли
Screenplay by : Джо Келли / Х. М. Кэн Ниимура
Producer : Джо Келли / Анна Барнатан / Майкл Барнатан
Production studio : RLJE Fims
Genre : Action & Adventure
ContentType : Short Film
Description : Барбара Торсон - особенная, ее уникальный талант - это возможность видеть мир великанов. И этот мир угрожает людям. Барбаре никто не верит, но она единственная, кто может спасти человечество от исчезновения. Она объявляет великанам войну и готовится к главному сражению в своей жизни.
Recorded date : UTC 2017-09-09 08:00:00
Encoded date : UTC 2018-06-26 09:31:28
Tagged date : UTC 2018-06-26 09:32:48
Copyright : © 2017 I Kill Giants Films Limited
Cover : Yes
Rating : None
Title/Sort : I Kill Giants
LongDescription : Барбара Торсон - особенная, ее уникальный талант - это возможность видеть мир великанов. И этот мир угрожает людям. Барбаре никто не верит, но она единственная, кто может спасти человечество от исчезновения. Она объявляет великанам войну и готовится к главному сражению в своей жизни.
AppleStoreCatalogID : 1349616510
Vendor : Apple:vendor_id:2017-924989
ContentRating : mpaa|NR|000|

Video #1
ID : 1
Format : AVC
Format/Info : Advanced Video Codec
Format profile : [email protected]
Format settings, CABAC : Yes
Format settings, ReFrames : 9 frames
Codec ID : avc1
Codec ID/Info : Advanced Video Coding
Duration : 1h 46mn
Source duration : 1h 46mn
Bit rate : 2 200 Kbps
Width : 1 024 pixels
Height : 432 pixels
Display aspect ratio : 2.40:1
Frame rate mode : Variable
Frame rate : 23.976 fps
Minimum frame rate : 23.974 fps
Maximum frame rate : 23.981 fps
Color space : YUV
Chroma subsampling : 4:2:0
Bit depth : 8 bits
Scan type : Progressive
Bits/(Pixel*Frame) : 0.207
Stream size : 1.64 GiB (89%)
Source stream size : 1.64 GiB (89%)
Title : Main Program
Writing library : x264 core 155 r2893 b00bcaf
Encoding settings : cabac=1 / ref=9 / deblock=1:0:0 / analyse=0x3:0x113 / me=umh / subme=9 / psy=1 / psy_rd=1.00:0.00 / mixed_ref=1 / me_range=32 / chroma_me=1 / trellis=1 / 8x8dct=1 / cqm=0 / deadzone=21,11 / fast_pskip=1 / chroma_qp_offset=-2 / threads=13 / lookahead_threads=1 / sliced_threads=0 / nr=0 / decimate=1 / interlaced=0 / bluray_compat=0 / constrained_intra=0 / bframes=6 / b_pyramid=2 / b_adapt=2 / b_bias=0 / direct=1 / weightb=1 / open_gop=0 / weightp=2 / keyint=240 / keyint_min=24 / scenecut=40 / intra_refresh=0 / rc_lookahead=40 / rc=2pass / mbtree=1 / bitrate=2200 / ratetol=1.0 / qcomp=0.60 / qpmin=0 / qpmax=69 / qpstep=4 / cplxblur=20.0 / qblur=0.5 / ip_ratio=1.40 / aq=1:1.00
Language : English
Encoded date : UTC 2018-06-26 09:31:28
Tagged date : UTC 2018-06-26 09:31:33
Color range : Limited
Color primaries : BT.709
Transfer characteristics : BT.709
Matrix coefficients : BT.709

Video #2
ID : 8
Format : JPEG
Codec ID : jpeg
Duration : 1h 46mn
Bit rate mode : Variable
Bit rate : 229 bps
Width : 640 pixels
Height : 270 pixels
Display aspect ratio : 2.40:1
Frame rate mode : Constant
Frame rate : 0.001 fps
Color space : YUV
Chroma subsampling : 4:2:0
Bit depth : 8 bits
Compression mode : Lossy
Bits/(Pixel*Frame) : 1.325
Stream size : 279 KiB (0%)
Title : Chapter Images
Language : English
Encoded date : UTC 2018-06-26 09:31:39
Tagged date : UTC 2018-06-26 09:31:39

Audio #1
ID : 2
Format : AAC
Format/Info : Advanced Audio Codec
Format profile : LC
Codec ID : 40
Duration : 1h 46mn
Source duration : 1h 46mn
Bit rate mode : Variable
Bit rate : 125 Kbps
Maximum bit rate : 203 Kbps
Channel(s) : 2 channels
Channel positions : Front: L R
Sampling rate : 48.0 KHz
Compression mode : Lossy
Stream size : 95.6 MiB (5%)
Source stream size : 95.6 MiB (5%)
Title : Russian Stereo
Language : Russian
Encoded date : UTC 2018-06-26 09:31:28
Tagged date : UTC 2018-06-26 09:31:36

Audio #2
ID : 3
Format : AAC
Format/Info : Advanced Audio Codec
Format profile : LC
Codec ID : 40
Duration : 1h 46mn
Source duration : 1h 46mn
Bit rate mode : Variable
Bit rate : 125 Kbps
Maximum bit rate : 182 Kbps
Channel(s) : 2 channels
Channel positions : Front: L R
Sampling rate : 48.0 KHz
Compression mode : Lossy
Stream size : 95.5 MiB (5%)
Source stream size : 95.5 MiB (5%)
Title : English Stereo
Language : English
Encoded date : UTC 2018-06-26 09:31:28
Tagged date : UTC 2018-06-26 09:31:36

Text #1
ID : 4
Format : Timed Text
Muxing mode : sbtl
Codec ID : tx3g
Duration : 1h 37mn
Bit rate mode : Variable
Bit rate : 66 bps
Stream size : 47.3 KiB (0%)
Title : Russian full V.1
Language : Russian
Encoded date : UTC 2018-06-26 09:31:28
Tagged date : UTC 2018-06-26 09:31:29

Text #2
ID : 5
Format : Timed Text
Muxing mode : sbtl
Codec ID : tx3g
Duration : 1h 37mn
Bit rate mode : Variable
Bit rate : 72 bps
Stream size : 50.9 KiB (0%)
Title : Russian full V.2
Language : Russian
Encoded date : UTC 2018-06-26 09:31:28
Tagged date : UTC 2018-06-26 09:31:29

Text #3
ID : 6
Format : Timed Text
Muxing mode : sbtl
Codec ID : tx3g
Duration : 1h 37mn
Bit rate mode : Variable
Bit rate : 47 bps
Stream size : 33.7 KiB (0%)
Title : English SDH
Language : English
Encoded date : UTC 2018-06-26 09:31:28
Tagged date : UTC 2018-06-26 09:31:29

Menu #1
00:00:00.000 : 1
00:09:26.232 : 2
00:19:25.623 : 3
00:30:54.061 : 4
00:42:20.956 : 5
00:53:39.717 : 6
01:04:09.722 : 7
01:14:56.951 : 8
01:27:10.809 : 9
01:38:03.168 : 10

Menu #2
ID : 7
Codec ID : text
Duration : 1h 46mn
Language : English
Encoded date : UTC 2018-06-26 09:31:36
Tagged date : UTC 2018-06-26 09:31:36
00:00:00.000 : 1
00:09:26.232 : 2
00:19:25.623 : 3
00:30:54.061 : 4
00:42:20.956 : 5
00:53:39.717 : 6
01:04:09.722 : 7
01:14:56.951 : 8
01:27:10.809 : 9
01:38:03.168 : 10
Bit rate mode : VBR
x264 [info]: frame I:1376  Avg QP:10.40  size: 85509
x264 [info]: frame P:38133 Avg QP:12.72  size: 24692
x264 [info]: frame B:113701 Avg QP:15.42  size:  6133
x264 [info]: consecutive B-frames:  1.9%  3.9%  4.5% 63.3%  8.6% 15.7%  2.1%
x264 [info]: mb I  I16..4:  8.7% 65.7% 25.6%
x264 [info]: mb P  I16..4:  1.2%  7.1%  1.7%  P16..4: 30.9% 29.1% 20.7%  0.0%  0.0%    skip: 9.2%
x264 [info]: mb B  I16..4:  0.1%  0.8%  0.2%  B16..8: 31.6% 12.5%  3.9%  direct: 5.5%  skip:45.4%  L0:42.0% L1:43.1% BI:14.9%
x264 [info]: 8x8 transform intra:69.2% inter:60.1%
x264 [info]: coded y,uvDC,uvAC intra: 89.8% 83.6% 67.3% inter: 28.0% 19.0% 3.8%
x264 [info]: i16 v,h,dc,p: 44% 12%  8% 36%
x264 [info]: i8 v,h,dc,ddl,ddr,vr,hd,vl,hu: 12% 10%  9%  8% 11% 12% 12% 12% 13%
x264 [info]: i4 v,h,dc,ddl,ddr,vr,hd,vl,hu: 12%  9%  4%  9% 14% 14% 13% 12% 14%
x264 [info]: i8c dc,h,v,p: 48% 22% 18% 12%
x264 [info]: Weighted P-Frames: Y:3.6% UV:0.9%
x264 [info]: ref P L0: 54.1%  7.9% 16.2%  6.6%  5.1%  3.6%  3.0%  1.7%  1.7%  0.1%  0.0%
x264 [info]: ref B L0: 75.5% 11.7%  5.4%  2.6%  2.0%  1.6%  1.0%  0.3%
x264 [info]: ref B L1: 95.2%  4.8%
x264 [info]: kb/s:2199.07

Релиз подготовлен для просмотра на Apple TV, iPad, iPhone, iPod Touch.
Для просмотра данного релиза на компьютере с ОС Windows рекомендуется использовать VLC media player

Трекер:  [ 26-Июн-2018 13:36 ]

  

Скачать .torrent

Размер .torrent файла 37 KB


Размер: 1.83 GB
Хэш (hash) релиза: 4024714e184f99e12b21f0da5baacadc57091dc3

Еще никто не оставлял запись к записи скачать торрент [iPad] Я сражаюсь с великанами I Kill Giants . Будь первым!

!Обратная связь