Télécharger One Piece 10 - Strong World | Скачать "Миссия: невыполнима 4 / Mission: Impossible - Ghost Protocol (2011) " на большой скорости | J-MELO S06E17 J-Melo In Saitama Part Two 1080p HEVC x265-MeGusta 1 hour

Скачать через торрент [VIDEO] Лига справедливости Justice League бесплатно русская версия torrent активатор

Статистика раздачи
Размер:  542 MB   |    Зарегистрирован:  25 дней   |    .torrent скачан:  36 раз   |   
Раздают:  1  
   
загрузка...
 
Автор Сообщение

Galfimbul

avatar Galfimbul




Лига справедливости / Justice League

Год выпуска: 2017
Страна: США, Великобритания, Канада
Жанр: фантастика, фэнтези, боевик, приключения
Продолжительность: 02:00:02
Перевод: русский Профессиональный (полное дублирование) BD EUR
Субтитры: нет
Режиссер: Зак Снайдер / Zack Snyder
В ролях: Бен Аффлек, Генри Кавилл, Эми Адамс, Галь Гадот, Эзра Миллер, Джейсон Момоа , Рэй Фишер, Джереми Айронс, Дайан Лэйн, Конни Нильсен, Дж.К. Симмонс, Киран Хайндс и другие .
Описание: Брюс Уэйн, вдохновленный самопожертвованием Супермена, вновь обретает веру в человечество. Он заручается поддержкой новой союзницы, Дианы Принс, чтобы сразиться с еще более могущественным противником. Бэтмен и Чудо-Женщина быстро набирают команду сверхлюдей для борьбы с пробудившейся угрозой. Но несмотря на уникальный состав отряда супергероев - Бэтмен, Чудо-Женщина, Аквамэн, Киборг и Флэш, - быть может, спасать планету от вторжения катастрофических масштабов уже слишком поздно .
Релиз группы

Качество: BDRip / рип с Blu-ray disc 1080p [EUR]
Формат: MP4
Видео кодек: XviD
Аудио кодек: AAC
Видео: 480x272 AR:1.76 499 kbps 23.976 fps
Аудио: [Russian] 2ch 48 kHz 128 kbps - [Dub] Профессиональный (полное дублирование) BD EUR
GeneralComplete name : K:\Torrents\Justice League.2017.BDRip.XviD.480x.rip by Frost O.S.mp4Format : MPEG-4Format profile : 3GPP Media Release 5Codec ID : 3gp5 (isom/3gp5/3gp4/mp41/mp42)File size : 542 MiBDuration : 2 h 0 minOverall bit rate mode : VariableOverall bit rate : 631 kb/sEncoded date : UTC 2018-06-25 16:16:13Tagged date : UTC 2018-06-25 16:16:13

VideoID : 1Format : MPEG-4 VisualFormat profile : Advanced [email protected] settings : BVOP / Custom MatrixFormat settings, BVOP : YesFormat settings, QPel : NoFormat settings, GMC : No warppointsFormat settings, Matrix : CustomCodec ID : mp4v-20Duration : 2 h 0 minBit rate mode : VariableBit rate : 499 kb/sMaximum bit rate : 3 775 kb/sWidth : 480 pixelsHeight : 272 pixelsDisplay aspect ratio : 16:9Frame rate mode : VariableFrame rate : 23.976 (24000/1001) FPSMinimum frame rate : 11.988 FPSMaximum frame rate : 23.976 FPSColor space : YUVChroma subsampling : 4:2:0Bit depth : 8 bitsScan type : ProgressiveCompression mode : LossyBits/(Pixel*Frame) : 0.160Stream size : 429 MiB (79%)Title : [email protected]-DEV-rev248-g39d5978-masterWriting library : XviD 1.2.1 (UTC 2008-12-04)Encoded date : UTC 2018-06-25 13:18:56Tagged date : UTC 2018-06-25 16:16:17

AudioID : 2Format : AACFormat/Info : Advanced Audio CodecFormat profile : LCCodec ID : mp4a-40-2Duration : 2 h 0 minBit rate mode : VariableBit rate : 128 kb/sMaximum bit rate : 135 kb/sChannel(s) : 2 channelsChannel positions : Front: L RSampling rate : 48.0 kHzFrame rate : 46.875 FPS (1024 SPF)Compression mode : LossyStream size : 110 MiB (20%)Title : Russian / Dub, BD EUREncoded date : UTC 2018-06-25 15:38:38Tagged date : UTC 2018-06-25 16:16:17


Трекер:  [ 25-Июн-2018 19:36 ]

  

Скачать .torrent

Размер .torrent файла 11 KB


Размер: 542 MB
Хэш (hash) релиза: df5b8546964dd2cc143926c8b9ae7026c21053d8

Еще никто не оставлял запись к записи скачать торрент [VIDEO] Лига справедливости Justice League . Будь первым!

!Обратная связь