Walk Like a Panther (2018) | Akte X - Die unheimlichen Fälle des FBI | Miranda (2009)

Скачать через торрент [iPad] Правда или действие Truth or Dare бесплатно русская версия torrent активатор

Статистика раздачи
Размер:  1.64 GB   |    Зарегистрирован:  21 день   |    .torrent скачан:  42 раза   |   
Раздают:  1  
   
загрузка...
 
Автор Сообщение

Galfimbul

avatar Galfimbul


Правда или действие / Truth or Dare

(Extended Cut)

«The Producer of Happy Death Day and Get Out dares you to play»

5.677 / 10 4.70 / 10
Год выпуска: 2018
Страна: США
Жанр: Ужасы, триллер
Продолжительность: 01:40:32

Перевод: Дублированный (iTunes)
Оригинальная аудиодорожка: Нет
Cубтитры: Нет
Режиссёр: Джефф Уодлоу
Сценарий: Майкл Рейш, Джиллиан Джейкобс, Кристофер Роач
Продюсер: Джейсон Блум, Купер Самуэльсон, Лаура Альтман
Оператор: Жак Жуффре
Композитор: Мэттью Марджесон
Художник: Мелани Джонс, Алисса Хилл, Лиза Норсиа
Монтаж: Шон Албертсон
В ролях: Люси Хейл, Тайлер Пози, Вайолетт Бин, Лэндон Либуарон, Нолан Джерард Фанк, Сэм Лернер, София Тейлор Али, Брэйди Смит, Хейден Сзето, Морган Линдхольм

Бюджет: $3 500 000
Сборы в США: $40 717 020
Сборы в мире: + $48 000 000 = $88 717 020
Сборы в России: $2 658 341

Мировая премьера: 12 апреля 2018
Премьера (РФ): 26 апреля 2018, «UPI»

Цифровой релиз: 21 июня 2018, «Universal»

Описание: Обычная игра «Правда или действие» превращается в жестокую гонку со смертью, когда к процессу подключается нечто сверхъестественное. Стоит кому-то из участников соврать или не выполнить положенное действие, его ждет жестокая расправа. Кто в итоге сможет выйти победителем в жестокой игре?
Качество исходника: WEB-DL 1080p (BlueBird)
Качество: WEB-DLRip
Тип: SD (576p)
Контейнер: M4V
Видео: H.264, 1024x432, 2.40:1, 2 200 Kbps, 23.976 fps

Аудио: Русский/Дублированный (iTunes), AAC / 2.0 / 128 Kbps / 48.0 KHz
Sort Name: Правда или действие - расширенную версию
XID: Apple:vendor_id:2018-1045590
contentID: 1374382756
Copyright: © 2018 Universal Studios. All Rights Reserved.
Screenwriters: Майкл Рейш, Джиллиан Джейкобс, Кристофер Роач
Producers: Джейсон Блум, Купер Самуэльсон, Лаура Альтман
Director: Джефф Уодлоу
Cast: Люси Хейл, Тайлер Пози, Вайолетт Бин, Лэндон Либуарон, Нолан Джерард Фанк, Сэм Лернер, София Тейлор Али, Брэйди Смит, Хейден Сзето, Морган Линдхольм
Studio: Universal Pictures
Rating: 135
Long Description: Обычная игра «Правда или действие» превращается в жестокую гонку со смертью, когда к процессу подключается нечто сверхъестественное. Стоит кому-то из участников соврать или не выполнить положенное действие, его ждет жестокая расправа. Кто в итоге сможет выйти победителем в жестокой игре?
Description: Обычная игра «Правда или действие» превращается в жестокую гонку со смертью, когда к процессу подключается нечто сверхъестественное. Стоит кому-то из участников соврать или не выполнить положенное действие, его ждет жестокая расправа. Кто в итоге сможет выйти победителем в жестокой игре?
Release Date: 2018-04-12T08:00:00Z
Genre: Horror
Artist: Jeff Wadlow
Name: Правда или действие - расширенную версию (2018)
General
Complete name : /Users/imac/HandBrake/Truth.or.Dare.(SD).(pk).m4v
Format : MPEG-4
Codec ID : M4V
File size : 1.64 GiB
Duration : 1h 40mn
Overall bit rate mode : Variable
Overall bit rate : 2 333 Kbps
Movie name : Правда или действие - расширенную версию (2018)
Performer : Jeff Wadlow
Director : Джефф Уодлоу
Actor : Люси Хейл / Тайлер Пози / Вайолетт Бин / Лэндон Либуарон / Нолан Джерард Фанк / Сэм Лернер / София Тейлор Али / Брэйди Смит / Хейден Сзето / Морган Линдхольм
Screenplay by : Майкл Рейш / Джиллиан Джейкобс / Кристофер Роач
Producer : Джейсон Блум / Купер Самуэльсон / Лаура Альтман
Production studio : Universal Pictures
Genre : Horror
ContentType : Short Film
Description : Обычная игра «Правда или действие» превращается в жестокую гонку со смертью, когда к процессу подключается нечто сверхъестественное. Стоит кому-то из участников соврать или не выполнить положенное действие, его ждет жестокая расправа. Кто в итоге сможет выйти победителем в жестокой игре?
Recorded date : UTC 2018-04-12 08:00:00
Encoded date : UTC 2018-06-25 14:42:10
Tagged date : UTC 2018-06-25 14:43:25
Copyright : © 2018 Universal Studios. All Rights Reserved.
Cover : Yes
Rating : None
Title/Sort : Правда или действие - расширенную версию
LongDescription : Обычная игра «Правда или действие» превращается в жестокую гонку со смертью, когда к процессу подключается нечто сверхъестественное. Стоит кому-то из участников соврать или не выполнить положенное действие, его ждет жестокая расправа. Кто в итоге сможет выйти победителем в жестокой игре?
AppleStoreCatalogID : 1374382756
Vendor : Apple:vendor_id:2018-1045590
ContentRating : ru-movie|16+|375|

Video #1
ID : 1
Format : AVC
Format/Info : Advanced Video Codec
Format profile : [email protected]
Format settings, CABAC : Yes
Format settings, ReFrames : 9 frames
Codec ID : avc1
Codec ID/Info : Advanced Video Coding
Duration : 1h 40mn
Source duration : 1h 40mn
Bit rate : 2 200 Kbps
Width : 1 024 pixels
Height : 432 pixels
Display aspect ratio : 2.40:1
Frame rate mode : Variable
Frame rate : 23.976 fps
Minimum frame rate : 23.974 fps
Maximum frame rate : 23.981 fps
Color space : YUV
Chroma subsampling : 4:2:0
Bit depth : 8 bits
Scan type : Progressive
Bits/(Pixel*Frame) : 0.207
Stream size : 1.54 GiB (94%)
Source stream size : 1.54 GiB (94%)
Title : Main Program
Writing library : x264 core 155 r2901 7d0ff22
Encoding settings : cabac=1 / ref=9 / deblock=1:0:0 / analyse=0x3:0x113 / me=umh / subme=9 / psy=1 / psy_rd=1.00:0.00 / mixed_ref=1 / me_range=32 / chroma_me=1 / trellis=1 / 8x8dct=1 / cqm=0 / deadzone=21,11 / fast_pskip=1 / chroma_qp_offset=-2 / threads=13 / lookahead_threads=1 / sliced_threads=0 / nr=0 / decimate=1 / interlaced=0 / bluray_compat=0 / constrained_intra=0 / bframes=6 / b_pyramid=2 / b_adapt=2 / b_bias=0 / direct=1 / weightb=1 / open_gop=0 / weightp=2 / keyint=240 / keyint_min=24 / scenecut=40 / intra_refresh=0 / rc_lookahead=40 / rc=2pass / mbtree=1 / bitrate=2200 / ratetol=1.0 / qcomp=0.60 / qpmin=0 / qpmax=69 / qpstep=4 / cplxblur=20.0 / qblur=0.5 / ip_ratio=1.40 / aq=1:1.00
Language : English
Encoded date : UTC 2018-06-25 14:42:10
Tagged date : UTC 2018-06-25 14:42:15
Color range : Limited
Color primaries : BT.709
Transfer characteristics : BT.709
Matrix coefficients : BT.709

Video #2
ID : 4
Format : JPEG
Codec ID : jpeg
Duration : 1h 40mn
Bit rate mode : Variable
Bit rate : 693 bps
Width : 640 pixels
Height : 270 pixels
Display aspect ratio : 2.40:1
Frame rate mode : Variable
Frame rate : 0.003 fps
Minimum frame rate : 0.002 fps
Maximum frame rate : 0.007 fps
Color space : YUV
Chroma subsampling : 4:2:0
Bit depth : 8 bits
Compression mode : Lossy
Bits/(Pixel*Frame) : 1.337
Stream size : 564 KiB (0%)
Title : Chapter Images
Language : English
Encoded date : UTC 2018-06-25 14:42:21
Tagged date : UTC 2018-06-25 14:42:22

Audio
ID : 2
Format : AAC
Format/Info : Advanced Audio Codec
Format profile : LC
Codec ID : 40
Duration : 1h 40mn
Source duration : 1h 40mn
Bit rate mode : Variable
Bit rate : 125 Kbps
Maximum bit rate : 198 Kbps
Channel(s) : 2 channels
Channel positions : Front: L R
Sampling rate : 48.0 KHz
Compression mode : Lossy
Stream size : 90.1 MiB (5%)
Source stream size : 90.1 MiB (5%)
Title : Russian Stereo
Language : Russian
Encoded date : UTC 2018-06-25 14:42:10
Tagged date : UTC 2018-06-25 14:42:17

Menu #1
00:00:00.000 : 1
00:02:31.151 : 2
00:10:49.065 : 3
00:14:15.396 : 4
00:20:27.476 : 5
00:25:16.306 : 6
00:29:20.717 : 7
00:34:53.800 : 8
00:41:22.104 : 9
00:45:28.934 : 10
00:48:33.535 : 11
00:54:42.695 : 12
00:58:26.418 : 13
01:05:53.656 : 14
01:10:04.114 : 15
01:15:46.956 : 16
01:21:59.244 : 17
01:28:26.214 : 18
01:31:46.998 : 19
01:37:56.742 : 20

Menu #2
ID : 3
Codec ID : text
Duration : 1h 40mn
Language : English
Encoded date : UTC 2018-06-25 14:42:17
Tagged date : UTC 2018-06-25 14:42:17
00:00:00.000 : 1
00:02:31.151 : 2
00:10:49.065 : 3
00:14:15.396 : 4
00:20:27.476 : 5
00:25:16.306 : 6
00:29:20.717 : 7
00:34:53.800 : 8
00:41:22.104 : 9
00:45:28.934 : 10
00:48:33.535 : 11
00:54:42.695 : 12
00:58:26.418 : 13
01:05:53.656 : 14
01:10:04.114 : 15
01:15:46.956 : 16
01:21:59.244 : 17
01:28:26.214 : 18
01:31:46.998 : 19
01:37:56.742 : 20
Bit rate mode : VBR
x264 [info]: frame I:1486  Avg QP:12.00  size: 63007
x264 [info]: frame P:37436 Avg QP:14.49  size: 20894
x264 [info]: frame B:105717 Avg QP:16.28  size:  7407
x264 [info]: consecutive B-frames:  3.3%  5.2%  8.2% 47.6% 13.4% 20.1%  2.3%
x264 [info]: mb I  I16..4:  7.6% 74.9% 17.5%
x264 [info]: mb P  I16..4:  1.7% 10.9%  2.1%  P16..4: 32.1% 30.4% 16.5%  0.0%  0.0%    skip: 6.1%
x264 [info]: mb B  I16..4:  0.1%  1.0%  0.2%  B16..8: 38.0% 17.2%  4.4%  direct: 6.8%  skip:32.4%  L0:43.6% L1:43.0% BI:13.3%
x264 [info]: 8x8 transform intra:74.2% inter:66.4%
x264 [info]: coded y,uvDC,uvAC intra: 88.3% 89.8% 73.8% inter: 32.6% 28.5% 4.6%
x264 [info]: i16 v,h,dc,p: 25% 10%  6% 60%
x264 [info]: i8 v,h,dc,ddl,ddr,vr,hd,vl,hu: 14%  8%  6%  9% 12% 14% 11% 13% 13%
x264 [info]: i4 v,h,dc,ddl,ddr,vr,hd,vl,hu: 13%  8%  3%  9% 15% 16% 13% 12% 12%
x264 [info]: i8c dc,h,v,p: 46% 20% 19% 15%
x264 [info]: Weighted P-Frames: Y:2.2% UV:1.0%
x264 [info]: ref P L0: 51.8%  8.7% 17.5%  6.7%  5.2%  3.5%  3.0%  1.7%  1.7%  0.1%  0.0%
x264 [info]: ref B L0: 76.3% 11.5%  5.3%  2.6%  1.8%  1.4%  0.8%  0.3%
x264 [info]: ref B L1: 95.5%  4.5%
x264 [info]: kb/s:2199.90

Релиз подготовлен для просмотра на Apple TV, iPad, iPhone, iPod Touch.
Для просмотра данного релиза на компьютере с ОС Windows рекомендуется использовать VLC media player

Трекер:  [ 25-Июн-2018 18:06 ]

  

Скачать .torrent

Размер .torrent файла 33 KB


Размер: 1.64 GB
Хэш (hash) релиза: a6f8d53c470eca3679b31f1e49a475abb9b116c0

Еще никто не оставлял запись к записи скачать торрент [iPad] Правда или действие Truth or Dare . Будь первым!

!Обратная связь