Perfect for You | Beyonc: Lemonade (2016) | The Handmaid’s Tale : la servante écarlate

Скачать через торрент [iPad] Конченая Terminal бесплатно русская версия torrent активатор

Статистика раздачи
Размер:  1.64 GB   |    Зарегистрирован:  21 день   |    .torrent скачан:  37 раз   |   
Раздают:  1  
   
загрузка...
 
Автор Сообщение

Galfimbul

avatar Galfimbul


Конченая / Terminal
«Ребятки, я вернулась!»

5.714 / 10 5.20 / 10
Год выпуска: 2018
Страна: США
Жанр: Триллер, драма, криминал
Продолжительность: 01:35:32

Перевод: Дублированный (iTunes)
Оригинальная аудиодорожка: Есть
Cубтитры: Русские форсированные, Русские, Английские
Режиссёр: Вон Стайн
Сценарий: Вон Стайн
Продюсер: Том Акерли, Дэвид Баррон, Эрианн Фрайзер
Оператор: Кристофер Росс
Композитор: Тони Кларк, Руперт Грегсон-Уильямс
Художник: Ричард Буллок, Адриен Асталош, Джулиан Дэй
Монтаж: Йоханнес Бок, Алекс Маркес
В ролях: Марго Робби, Саймон Пегг, Декстер Флетчер, Майк Майерс, Макс Айронс, Катарина Час, Ник Моран, Лес Лавдей, Джордан Данн, Мэттью Льюис

Сборы в России: $516 652

Мировая премьера: 10 мая 2018
Премьера (РФ): 17 мая 2018, «Централ Партнершип»

Цифровой релиз: 14 июня 2018, «All media»

Описание: Фильм окунет вас в опасный мир английского криминала. В центре истории — роковая особа Энни, предстающая в разных амплуа. Она ведет сложную игру с несколькими мужчинами, которых — на первый взгляд — ничто не связывает. Стравливая их друг с другом, она преследует свою жестокую цель.
Качество исходника: WEB-DL 1080p (NNMClub)
Качество: WEB-DLRip
Тип: SD (576p)
Контейнер: M4V
Видео: H.264, 1024x576, 16:9, 2 200 Kbps, 23.976 fps

Аудио 1: Русский/Дублированный (iTunes), AAC / 2.0 / 128 Kbps / 48.0 KHz
Аудио 2: Английский/Оригинальная дорожка , AAC / 2.0 / 128 Kbps / 48.0 KHz

Субтитры 1: Русские форсированные
Субтитры 2: Русские полные
Субтитры 3: Английские полные
Sort Name: Terminal
XID: Apple:vendor_id:2018-908041
contentID: 1368339199
Copyright: © 2017 Mr. Lively, LLC. All Rights Reserved.
Screenwriters: Вон Стайн
Producers: Том Акерли, Дэвид Баррон, Эрианн Фрайзер
Director: Вон Стайн
Cast: Марго Робби, Майк Майерс, Саймон Пегг, Макс Айронс, Декстер Флетчер, Мэттью Льюис, Катарина Час, Ник Моран, Томас Тургус, Джордан Данн
Studio: RLJE Films
Rating: 0
Long Description: Фильм окунет вас в опасный мир английского криминала. В центре истории — роковая особа Энни, предстающая в разных амплуа. Она ведет сложную игру с несколькими мужчинами, которых — на первый взгляд — ничто не связывает. Стравливая их друг с другом, она преследует свою жестокую цель.
Description: Фильм окунет вас в опасный мир английского криминала. В центре истории — роковая особа Энни, предстающая в разных амплуа. Она ведет сложную игру с несколькими мужчинами, которых — на первый взгляд — ничто не связывает.
Release Date: 2018-05-11T07:00:00Z
Genre: Thriller
Artist: Vaughn Stein
Name: Terminal
General
Complete name : /Users/imac/HandBrake/Terminal.(SD).(pk).m4v
Format : MPEG-4
Codec ID : M4V
File size : 1.64 GiB
Duration : 1h 35mn
Overall bit rate mode : Variable
Overall bit rate : 2 456 Kbps
Movie name : Terminal
Performer : Vaughn Stein
Director : Вон Стайн
Actor : Марго Робби / Майк Майерс / Саймон Пегг / Макс Айронс / Декстер Флетчер / Мэттью Льюис / Катарина Час / Ник Моран / Томас Тургус / Джордан Данн
Screenplay by : Вон Стайн
Producer : Том Акерли / Дэвид Баррон / Эрианн Фрайзер
Production studio : RLJE Films
Genre : Thriller
ContentType : Short Film
Description : Фильм окунет вас в опасный мир английского криминала. В центре истории — роковая особа Энни, предстающая в разных амплуа. Она ведет сложную игру с несколькими мужчинами, которых — на первый взгляд — ничто не связывает.
Recorded date : UTC 2018-05-11 07:00:00
Encoded date : UTC 2018-06-25 10:16:25
Tagged date : UTC 2018-06-25 10:19:11
Copyright : © 2017 Mr. Lively, LLC. All Rights Reserved.
Cover : Yes
Rating : None
Title/Sort : Terminal
LongDescription : Фильм окунет вас в опасный мир английского криминала. В центре истории — роковая особа Энни, предстающая в разных амплуа. Она ведет сложную игру с несколькими мужчинами, которых — на первый взгляд — ничто не связывает. Стравливая их друг с другом, она преследует свою жестокую цель.
AppleStoreCatalogID : 1368339199
Vendor : Apple:vendor_id:2018-908041
ContentRating : mpaa|Unrated|???|

Video #1
ID : 1
Format : AVC
Format/Info : Advanced Video Codec
Format profile : [email protected]
Format settings, CABAC : Yes
Format settings, ReFrames : 9 frames
Codec ID : avc1
Codec ID/Info : Advanced Video Coding
Duration : 1h 35mn
Source duration : 1h 35mn
Bit rate : 2 200 Kbps
Width : 1 024 pixels
Height : 576 pixels
Display aspect ratio : 16:9
Frame rate mode : Variable
Frame rate : 23.976 fps
Minimum frame rate : 23.974 fps
Maximum frame rate : 23.981 fps
Color space : YUV
Chroma subsampling : 4:2:0
Bit depth : 8 bits
Scan type : Progressive
Bits/(Pixel*Frame) : 0.156
Stream size : 1.47 GiB (89%)
Source stream size : 1.47 GiB (89%)
Title : Main Program
Writing library : x264 core 155 r2893 b00bcaf
Encoding settings : cabac=1 / ref=9 / deblock=1:0:0 / analyse=0x3:0x113 / me=umh / subme=9 / psy=1 / psy_rd=1.00:0.00 / mixed_ref=1 / me_range=32 / chroma_me=1 / trellis=1 / 8x8dct=1 / cqm=0 / deadzone=21,11 / fast_pskip=1 / chroma_qp_offset=-2 / threads=18 / lookahead_threads=2 / sliced_threads=0 / nr=0 / decimate=1 / interlaced=0 / bluray_compat=0 / constrained_intra=0 / bframes=6 / b_pyramid=2 / b_adapt=2 / b_bias=0 / direct=1 / weightb=1 / open_gop=0 / weightp=2 / keyint=240 / keyint_min=24 / scenecut=40 / intra_refresh=0 / rc_lookahead=40 / rc=2pass / mbtree=1 / bitrate=2200 / ratetol=1.0 / qcomp=0.60 / qpmin=0 / qpmax=69 / qpstep=4 / cplxblur=20.0 / qblur=0.5 / ip_ratio=1.40 / aq=1:1.00
Language : English
Encoded date : UTC 2018-06-25 10:16:25
Tagged date : UTC 2018-06-25 10:16:30
Color range : Limited
Color primaries : BT.709
Transfer characteristics : BT.709
Matrix coefficients : BT.709

Video #2
ID : 8
Format : JPEG
Codec ID : jpeg
Duration : 1h 35mn
Bit rate mode : Variable
Bit rate : 470 bps
Width : 640 pixels
Height : 360 pixels
Display aspect ratio : 16:9
Frame rate mode : Variable
Frame rate : 0.002 fps
Minimum frame rate : 0.001 fps
Maximum frame rate : 0.006 fps
Color space : YUV
Chroma subsampling : 4:2:0
Bit depth : 8 bits
Compression mode : Lossy
Bits/(Pixel*Frame) : 1.020
Stream size : 258 KiB (0%)
Title : Chapter Images
Language : English
Encoded date : UTC 2018-06-25 10:16:35
Tagged date : UTC 2018-06-25 10:16:35

Audio #1
ID : 2
Format : AAC
Format/Info : Advanced Audio Codec
Format profile : LC
Codec ID : 40
Duration : 1h 35mn
Source duration : 1h 35mn
Bit rate mode : Variable
Bit rate : 126 Kbps
Maximum bit rate : 186 Kbps
Channel(s) : 2 channels
Channel positions : Front: L R
Sampling rate : 48.0 KHz
Compression mode : Lossy
Stream size : 85.9 MiB (5%)
Source stream size : 85.9 MiB (5%)
Title : Russian Stereo
Language : Russian
Encoded date : UTC 2018-06-25 10:16:25
Tagged date : UTC 2018-06-25 10:16:33

Audio #2
ID : 3
Format : AAC
Format/Info : Advanced Audio Codec
Format profile : LC
Codec ID : 40
Duration : 1h 35mn
Source duration : 1h 35mn
Bit rate mode : Variable
Bit rate : 125 Kbps
Maximum bit rate : 214 Kbps
Channel(s) : 2 channels
Channel positions : Front: L R
Sampling rate : 48.0 KHz
Compression mode : Lossy
Stream size : 85.7 MiB (5%)
Source stream size : 85.7 MiB (5%)
Title : English Stereo
Language : English
Encoded date : UTC 2018-06-25 10:16:25
Tagged date : UTC 2018-06-25 10:16:33

Text #1
ID : 4
Format : Timed Text
Muxing mode : sbtl
Codec ID : tx3g
Duration : 1h 17mn
Bit rate mode : Variable
Bit rate : 0 bps
Stream size : 256 Bytes (0%)
Title : Russian forced
Language : Russian
Encoded date : UTC 2018-06-25 10:16:25
Tagged date : UTC 2018-06-25 10:16:26

Text #2
ID : 5
Format : Timed Text
Muxing mode : sbtl
Codec ID : tx3g
Duration : 1h 31mn
Bit rate mode : Variable
Bit rate : 116 bps
Stream size : 77.3 KiB (0%)
Title : Russian full
Language : Russian
Encoded date : UTC 2018-06-25 10:16:25
Tagged date : UTC 2018-06-25 10:16:26

Text #3
ID : 6
Format : Timed Text
Muxing mode : sbtl
Codec ID : tx3g
Duration : 1h 35mn
Bit rate mode : Variable
Bit rate : 72 bps
Stream size : 49.9 KiB (0%)
Title : English full
Language : English
Encoded date : UTC 2018-06-25 10:16:25
Tagged date : UTC 2018-06-25 10:16:26

Menu #1
00:00:00.000 : 1
00:09:49.798 : 2
00:21:31.666 : 3
00:34:19.141 : 4
00:44:03.934 : 5
00:58:29.174 : 6
01:11:17.192 : 7
01:21:53.745 : 8
01:32:33.968 : 9

Menu #2
ID : 7
Codec ID : text
Duration : 1h 35mn
Language : English
Encoded date : UTC 2018-06-25 10:16:33
Tagged date : UTC 2018-06-25 10:16:33
Bit rate mode : CBR
00:00:00.000 : 1
00:09:49.798 : 2
00:21:31.666 : 3
00:34:19.141 : 4
00:44:03.934 : 5
00:58:29.174 : 6
01:11:17.192 : 7
01:21:53.745 : 8
01:32:33.968 : 9
x264 [info]: frame I:1776  Avg QP:13.16  size: 93648
x264 [info]: frame P:33827 Avg QP:15.90  size: 21983
x264 [info]: frame B:101831 Avg QP:18.20  size:  6519
x264 [info]: consecutive B-frames:  2.6%  2.3%  4.3% 63.3%  9.5% 16.1%  1.9%
x264 [info]: mb I  I16..4: 10.7% 71.0% 18.3%
x264 [info]: mb P  I16..4:  1.8%  5.7%  1.2%  P16..4: 37.6% 25.0% 15.2%  0.0%  0.0%    skip:13.5%
x264 [info]: mb B  I16..4:  0.2%  0.5%  0.1%  B16..8: 36.1%  7.8%  2.0%  direct: 4.4%  skip:48.9%  L0:44.1% L1:47.0% BI: 8.9%
x264 [info]: 8x8 transform intra:67.6% inter:73.1%
x264 [info]: coded y,uvDC,uvAC intra: 76.1% 89.6% 79.1% inter: 19.4% 30.6% 11.7%
x264 [info]: i16 v,h,dc,p: 37% 15%  9% 40%
x264 [info]: i8 v,h,dc,ddl,ddr,vr,hd,vl,hu: 11%  9%  8%  9% 13% 13% 13% 12% 12%
x264 [info]: i4 v,h,dc,ddl,ddr,vr,hd,vl,hu: 11%  9%  5%  9% 14% 14% 13% 11% 12%
x264 [info]: i8c dc,h,v,p: 43% 20% 18% 19%
x264 [info]: Weighted P-Frames: Y:2.8% UV:1.9%
x264 [info]: ref P L0: 49.9%  8.0% 18.7%  6.7%  5.5%  3.8%  3.5%  1.9%  1.9%  0.1%  0.0%
x264 [info]: ref B L0: 72.1% 13.6%  6.2%  3.0%  2.0%  1.7%  1.1%  0.4%
x264 [info]: ref B L1: 94.0%  6.0%
x264 [info]: kb/s:2196.47

Релиз подготовлен для просмотра на Apple TV, iPad, iPhone, iPod Touch.
Для просмотра данного релиза на компьютере с ОС Windows рекомендуется использовать VLC media player

Трекер:  [ 25-Июн-2018 13:36 ]

  

Скачать .torrent

Размер .torrent файла 33 KB


Размер: 1.64 GB
Хэш (hash) релиза: 159325d65fe0fe7310ce4c5b1a696a3a0958d1f8

Еще никто не оставлял запись к записи скачать торрент [iPad] Конченая Terminal . Будь первым!

!Обратная связь