American Gods (season 2) | Pippi Langstrumpf | Sengoku Basara: Judge End

Скачать порно через торрент [RealityLovers.com] Sofi Goldfinger UnionPeer.org бесплатно онлайн HD качество

Скачать новое порно 2015, 2014 новинки через торрент UnionPeer.org

Порно торрент бесплатно ЮнионПир.орг

Статистика раздачи
Размер:  3.92 GB   |    Зарегистрирован:  1 месяц 21 день   |    .torrent скачан:  177 раз   |   
Раздают:  2  
   
загрузка...
 
Автор Сообщение

Galfimbul

avatar Galfimbul


Имя актрисы: Sofi Goldfinger
Название ролика: Forget Her Not
Сайт: RealityLovers.com

Год производства: 2017 г.
Жанр: Anal, Blonde, Blowjob, Cowgirl, Reverse Cowgirl, Russian, Teasing
Продолжительность: 27:42

Описание: our gorgeous girlfriend Sofi Goldfinger has a birthday today. Wait, what? You forgot all about it? You''ve got to be kidding! Such a sweetheart as Sofi, expects just a tiny bit of attention on her special day and you just didn''t care enough to write it down at least once! Well Sofi is a gentle soul, she might get angry at first that you forget, but opts for a different treatment later. She gives you a show that you''ll never forget, and the sex that you''d die for any other day. After this, you certainly won''t forget anything anymore.

Тип HD видео: 1440p
Тип устройства: Samsung Gear VR
Тип 3D: SideBySide
Формат видео: MP4
Видео: H264 2880x1440 59.94fps 19938kbps
Аудио: AAC 48000Hz 6ch 317kbps
General
Complete name : FORGER HER NOT POV - Sofi Goldfinger Gear Vr.mp4
Format : MPEG-4
Format profile : Base Media / Version 2
Codec ID : mp42
File size : 3.92 GiB
Duration : 27mn 41s
Overall bit rate mode : Variable
Overall bit rate : 20.3 Mbps
Encoded date : UTC 2017-11-08 04:45:51
Tagged date : UTC 2017-11-08 04:46:51
©TIM : 00;00;00;00
©TSC : 60000
©TSZ : 1001

Video
ID : 1
Format : AVC
Format/Info : Advanced Video Codec
Format profile : [email protected]
Format settings, CABAC : Yes
Format settings, ReFrames : 4 frames
Codec ID : avc1
Codec ID/Info : Advanced Video Coding
Duration : 27mn 41s
Bit rate : 19.9 Mbps
Width : 2 880 pixels
Height : 1 440 pixels
Display aspect ratio : 2.000
Frame rate mode : Constant
Frame rate : 59.940 fps
Standard : NTSC
Color space : YUV
Chroma subsampling : 4:2:0
Bit depth : 8 bits
Scan type : Progressive
Bits/(Pixel*Frame) : 0.080
Stream size : 3.86 GiB (98%)
Language : English
Encoded date : UTC 2017-11-08 04:45:51
Tagged date : UTC 2017-11-08 04:45:51
Color primaries : BT.709
Transfer characteristics : BT.709
Matrix coefficients : BT.709

Audio
ID : 2
Format : AAC
Format/Info : Advanced Audio Codec
Format profile : LC
Codec ID : 40
Duration : 27mn 41s
Source duration : 27mn 41s
Bit rate mode : Variable
Bit rate : 317 Kbps
Maximum bit rate : 451 Kbps
Channel(s) : 6 channels
Channel positions : Front: L C R, Side: L R, LFE
Sampling rate : 48.0 KHz
Compression mode : Lossy
Stream size : 62.9 MiB (2%)
Source stream size : 62.9 MiB (2%)
Language : English
Encoded date : UTC 2017-11-08 04:45:51
Tagged date : UTC 2017-11-08 04:45:51


Трекер:  [ 24-Июн-2018 20:46 ]

  

Скачать .torrent

Размер .torrent файла 20 KB


Размер: 3.92 GB
Хэш (hash) релиза: 687153f043335c7ae8e3e52d6132807035837802

Торренты, похожие на [RealityLovers.com] Sofi Goldfinger скачать торрент

Форум Название Автор Размер S L Добавлен
Порноролики в 3D и Virtual Reality (VR) ·%· [RealityLovers.com] Sofi Goldfinger (Forget Her Not) [2017 г., Anal, Blonde, Blowjob, Cowgirl, Reverse Cowgirl, Russian, Teasing, SideBySide, 1920p] [Oculus Rift / Vive] Galfimbul 62768645145.85 GB 0 0 1530048844

00:34

27-Июн-18

Еще никто не оставлял запись к записи скачать торрент [RealityLovers.com] Sofi Goldfinger . Будь первым!

!Обратная связь