Pleasure - Get Down Edits Remix | Download Lagu OST. DILAN 1990 - Dulu Kita Masih SMA - Luthfi Aulia Feat. Adinda (COVER) | Автомир №28 (2018) PDF

Скачать через торрент Наследница Сезон: 1 Фильм бесплатно в хорошем качестве torrent

Скачивайте на UnionPeer.org фильмы через торрент без регистрации. Новинки кино в хорошем качестве через торрент. На UnionPeer.org можно скачать через торрент фильмы 2014 и 2015 годов. Самые новые фильмы.

Скачать торрент Наследница Сезон: 1 бесплатно через .torrent фильм мультфильм сериал

Статистика раздачи
Размер:  2.25 GB   |    Зарегистрирован:  25 дней   |    .torrent скачан:  62 раза   |   
Раздают:  1  
   
загрузка...
 
Автор Сообщение

Galfimbul

avatar Galfimbul


Наследница
Год выпуска: 2011
Производство: «Продюсерский центр "ПРО100ФИЛЬМ"»
Жанр: Мелодрама
Продолжительность: ~ 47 мин.
Субтитры: Отсутствуют
Режиссер: Андрей Джунковский
В ролях: Юлия Зимина, Александр Дьяченко, Константин Юшкевич, Олег Алмазов, Анатолий Горячев, Валентина Ананьина, Тагир Рахимов, Александр Давыдов (III), Ольга Лапшина, Иван Косичкин, Ольга Стрелецкая, Игорь Ларин (II), Мария Куркова, Владислав Павлов, Дмитрий Буренков и др.
Описание: В наследство от деда известная телеведущая Марина Котова получает деревенский дом и лесопилку. Но Марина не мыслит своей жизни без телевидения и вступать в права наследства не собирается. Она едет в провинцию с уверенностью, что управится с оформлением бумаг за один день. Что ещё делать в деревенской глуши, где можно умереть от скуки?
Однако у новой хозяйки - "барыни" - складываются непростые отношения с работниками лесопилки. Поездка по разным причинам затягивается. И лишь благодаря молчаливому хозяину хутора Марине удаётся раз за разом выкручиваться из опасных ситуаций…



Релиз группы
Семпл
Кино-Театр
Качество:DVDRip
Формат: AVI
Видео кодек: XviD
Аудио кодек: AC3
Видео: 720x400 (1.80:1), 25 fps, XviD build 73 ~1500 kbps avg, 0.21 bit/pixel
Аудио: 48 kHz, AC3 Dolby Digital, 2/0 (L,R) ch, ~192.00 kbps avg
General
Complete name                       : D:\Наследница\Naslednica.s01e01.2011.DVDRip.RG.Russkie.serialy.avi
Format                              : AVI
Format/Info                         : Audio Video Interleave
File size                           : 558 MiB
Duration                            : 45mn 47s
Overall bit rate                    : 1 702 Kbps
Writing application                 : VirtualDubMod 1.5.10.3 | www.virtualdub-fr.org || (build 2550/release)
Writing library                     : VirtualDubMod build 2550/release

Video
ID                                  : 0
Format                              : MPEG-4 Visual
Format profile                      : Advanced [email protected]
Format settings, BVOP               : 2
Format settings, QPel               : No
Format settings, GMC                : No warppoints
Format settings, Matrix             : Custom
Codec ID                            : XVID
Codec ID/Hint                       : XviD
Duration                            : 45mn 47s
Bit rate                            : 1 501 Kbps
Width                               : 720 pixels
Height                              : 400 pixels
Display aspect ratio                : 16:9
Frame rate                          : 25.000 fps
Color space                         : YUV
Chroma subsampling                  : 4:2:0
Bit depth                           : 8 bits
Scan type                           : Progressive
Compression mode                    : Lossy
Bits/(Pixel*Frame)                  : 0.208
Stream size                         : 491 MiB (88%)
Writing library                     : XviD 73

Audio
ID                                  : 1
Format                              : AC-3
Format/Info                         : Audio Coding 3
Mode extension                      : CM (complete main)
Format settings, Endianness         : Big
Codec ID                            : 2000
Duration                            : 45mn 47s
Bit rate mode                       : Constant
Bit rate                            : 192 Kbps
Channel(s)                          : 2 channels
Channel positions                   : Front: L R
Sampling rate                       : 48.0 KHz
Bit depth                           : 16 bits
Compression mode                    : Lossy
Stream size                         : 62.9 MiB (11%)
Alignment                           : Split accross interleaves
Interleave, duration                : 40 ms (1.00 video frame)
Interleave, preload duration        : 500 ms
Сравнение с этой раздачей ...3542361
http://screenshotcomparison.com/comparison/115615/picture:7


Трекер:  [ 24-Июн-2018 15:42 ]

  

Скачать .torrent

Размер .torrent файла 12 KB


Размер: 2.25 GB
Хэш (hash) релиза: d7c6bb29af3dde31952e52dbb763a927804c485a
Подписка на обновления:

Еще никто не оставлял запись к записи скачать торрент Наследница Сезон: 1 . Будь первым!

!Обратная связь