Télécharger | Télécharger Ah! My Goddess - Le Film | Children Of The ...

Скачать через торрент День выборов по-французски Les Tuche 3 бесплатно русская версия torrent активатор

Статистика раздачи
Размер:  3.14 GB   |    Зарегистрирован:  26 дней   |    .torrent скачан:  23 раза   |   
Раздают:  1  
   
загрузка...
 
Автор Сообщение

Galfimbul

avatar Galfimbul


День выборов по-французски / Les Tuche 3
-

/ 10 4.60 / 10
Год выпуска: 2018
Страна: Франция
Жанр: Комедия
Продолжительность: 1:32

Перевод: Дублированный (iTunes)
Оригинальная аудиодорожка: Есть
Cубтитры: Нет
Режиссёр: Оливье Барру
Сценарий: Оливье Барру, Нессим Чихауи, Жюльен Эрве
Продюсер: Ришар Гранпьер
Оператор: Кристиан Эбомниз
Композитор: Мартин Раппено
Художник: Луис Дуру
Монтаж: Флора Вольпельер
В ролях: Жан-Поль Рув, Изабель Нанти, Клер Надо, Сара Штерн, Пьер Лоттен, Тео Фернандез, Фабьен Ара, Кристиан Де Ла Кортина, Жоффруа де ла Тай, Лео Дюссолье

Мировая премьера: 31 января 2018
Цифровой релиз: 6 июня 2018, «НД Плэй»

Описание: Неунывающая семейка Туше возвращается! Теперь старшие и младшие Туше переезжают… в Елисейский дворец. Все началось с того, что Джефф Туше собирался в очередной раз навестить свою тетушку и как следует отдохнуть, однако новый скоростной поезд почему-то не стал останавливаться на его станции. Возмущению Туше-старшего не было предела, так что он решил попросить во всем разобраться самого главного человека во Франции — президента. Когда все попытки достучаться до руководства страны оказались безуспешными, Туше решил действовать по-другому: выдвинуть собственную кандидатуру на президентские выборы. Дальнейшие события складываются таким образом, что именно Туше получает большинство голосов избирателей. Теперь он — президент, который, правда, не имеет ни малейшего представления о том, как управлять страной.
Качество исходника: BDRemux (NNMClub)
Качество: BDRip
Тип: HD (720p)
Контейнер: M4V (M4V /M4A /mp42/isom)
Видео: H.264, 1280x536, 2.40:1, 3 500 Kbps, 23.976 (24000/1001) fps

Аудио 1: Русский/Дублированный (iTunes), AAC / 2.0 / 160 Kbps / 48.0 KHz
Аудио 2: Французский/Оригинальная дорожка , AAC / 2.0 / 160 Kbps / 48.0 KHz
Аудио 3: Русский/Дублированный (iTunes), AC-3 / 5.1 / 384 Kbps / 48.0 KHz
Аудио 4: Французский/Оригинальная дорожка , AC-3 / 5.1 / 640 Kbps / 48.0 KHz
Sort Name: Les Tuche 3
XID: Apple:vendor_id:2018-1061552
contentID: 1338830970
Copyright: © 2018 ESKWAD / PATHE FILMS / TF1 FILMS PRODUCTION / GIALLA PRODUCTIONS / JOUROR
Screenwriters: Оливье Барру, Нессим Чихауи, Жюльен Эрве
Producers: Ришар Гранпьер
Director: Оливье Барру
Cast: Жан-Поль Рув, Изабель Нанти, Клер Надо, Сара Штерн, Пьер Лоттен, Тео Фернандез, Фабьен Ара, Кристиан Де Ла Кортина, Жоффруа де ла Тай, Лео Дюссолье
Studio: ESKWAD
Rating: 60
Long Description: Неунывающая семейка Туше возвращается! Теперь старшие и младшие Туше переезжают... в Елисейский дворец. Все началось с того, что Джефф Туше собирался в очередной раз навестить свою тетушку и как следует отдохнуть, однако новый скоростной поезд почему-то не стал останавливаться на его станции. Возмущению Туше-старшего не было предела, так что он решил попросить во всем разобраться самого главного человека во Франции - президента. Когда все попытки достучаться до руководства страны оказались безуспешными, Туше решил действовать по-другому: выдвинуть собственную кандидатуру на президентские выборы. Дальнейшие события складываются таким образом, что именно Туше получает большинство голосов избирателей. Теперь он - президент, который, правда, не имеет ни малейшего представления о том, как управлять страной.
Description: Неунывающая семейка Туше возвращается! Теперь старшие и младшие Туше переезжают... в Елисейский дворец. Все началось с того, что Джефф Туше собирался в очередной раз навестить свою тетушку и как следует отдохнуть, однако новый скоростной поезд почему-то не стал останавливаться на его станции. Возмущению Туше-старшего не было предела, так что он решил попросить во всем разобраться самого главного человека во Франции - президента...
Release Date: 2018-01-31T08:00:00Z
Genre: Comedy
Artist: Olivier Baroux
Name: Les Tuche 3
General
Complete name                            : /Users/imac/HandBrake/Les Tuche 3 (720p HD).m4v
Format                                   : MPEG-4
Codec ID                                 : M4V  (M4V /M4A /mp42/isom)
File size                                : 3.14 GiB
Duration                                 : 1h 32mn
Overall bit rate mode                    : Variable
Overall bit rate                         : 4 845 Kbps
Movie name                               : Les Tuche 3
Performer                                : Olivier Baroux
Director                                 : Оливье Барру
Actor                                    : Жан-Поль Рув / Изабель Нанти / Клер Надо / Сара Штерн / Пьер Лоттен / Тео Фернандез / Фабьен Ара / Кристиан Де Ла Кортина / Жоффруа де ла Тай / Лео Дюссолье
Screenplay by                            : Оливье Барру / Нессим Чихауи / Жюльен Эрве
Producer                                 : Ришар Гранпьер
Production studio                        : ESKWAD
Genre                                    : Comedy
ContentType                              : Short Film
Description                              : Неунывающая семейка Туше возвращается! Теперь старшие и младшие Туше переезжают... в Елисейский дворец. Все началось с того, что Джефф Туше собирался в очередной раз навестить свою тетушку и как следует отдохнуть, однако новый скоростной поезд почему-то не стал останавливаться на его станции. Возмущению Туше-старшего не было предела, так что он решил попросить во всем разобраться самого главного человека во Франции - президента...
Recorded date                            : UTC 2018-01-31 08:00:00
Encoded date                             : UTC 2018-06-24 11:50:50
Tagged date                              : UTC 2018-06-24 11:52:27
Copyright                                : © 2018 ESKWAD / PATHE FILMS / TF1 FILMS PRODUCTION / GIALLA PRODUCTIONS / JOUROR
Cover                                    : Yes
Rating                                   : None
Title/Sort                               : Les Tuche 3
LongDescription                          : Неунывающая семейка Туше возвращается! Теперь старшие и младшие Туше переезжают... в Елисейский дворец. Все началось с того, что Джефф Туше собирался в очередной раз навестить свою тетушку и как следует отдохнуть, однако новый скоростной поезд почему-то не стал останавливаться на его станции. Возмущению Туше-старшего не было предела, так что он решил попросить во всем разобраться самого главного человека во Франции - президента. Когда все попытки достучаться до руководства страны оказались безуспешными, Туше решил действовать по-другому: выдвинуть собственную кандидатуру на президентские выборы. Дальнейшие события складываются таким образом, что именно Туше получает большинство голосов избирателей. Теперь он - президент, который, правда, не имеет ни малейшего представления о том, как управлять страной.
HDVideo                                  : Yes
AppleStoreCatalogID                      : 1338830970
Vendor                                   : Apple:vendor_id:2018-1061552
ContentRating                            : fr-movie|Tout public|000|

Video #1
ID                                       : 1
Format                                   : AVC
Format/Info                              : Advanced Video Codec
Format profile                           : [email protected]
Format settings                          : 3 Ref Frames
Format settings, CABAC                   : No
Format settings, ReFrames                : 3 frames
Codec ID                                 : avc1
Codec ID/Info                            : Advanced Video Coding
Duration                                 : 1h 32mn
Source duration                          : 1h 32mn
Bit rate                                 : 3 500 Kbps
Width                                    : 1 280 pixels
Height                                   : 536 pixels
Display aspect ratio                     : 2.40:1
Frame rate mode                          : Variable
Frame rate                               : 23.976 (24000/1001) fps
Minimum frame rate                       : 23.974 fps
Maximum frame rate                       : 23.981 fps
Color space                              : YUV
Chroma subsampling                       : 4:2:0
Bit depth                                : 8 bits
Scan type                                : Progressive
Bits/(Pixel*Frame)                       : 0.213
Stream size                              : 2.27 GiB (72%)
Source stream size                       : 2.27 GiB (72%)
Title                                    : Main Program
Writing library                          : x264 core 155 r2901 7d0ff22
Encoding settings                        : cabac=0 / ref=3 / deblock=1:-3:-3 / analyse=0x3:0x113 / me=umh / subme=9 / psy=1 / psy_rd=1.00:0.15 / mixed_ref=1 / me_range=32 / chroma_me=1 / trellis=0 / 8x8dct=1 / cqm=0 / deadzone=21,11 / fast_pskip=0 / chroma_qp_offset=-2 / threads=17 / lookahead_threads=1 / sliced_threads=0 / nr=0 / decimate=0 / interlaced=0 / bluray_compat=0 / constrained_intra=0 / bframes=3 / b_pyramid=0 / b_adapt=2 / b_bias=0 / direct=1 / weightb=0 / open_gop=0 / weightp=0 / keyint=240 / keyint_min=24 / scenecut=40 / intra_refresh=0 / rc_lookahead=40 / rc=2pass / mbtree=1 / bitrate=3500 / ratetol=1.0 / qcomp=0.65 / qpmin=0 / qpmax=69 / qpstep=4 / cplxblur=20.0 / qblur=0.5 / vbv_maxrate=9500 / vbv_bufsize=9500 / nal_hrd=none / filler=0 / ip_ratio=1.40 / aq=1:1.10
Language                                 : French
Encoded date                             : UTC 2018-06-24 11:50:50
Tagged date                              : UTC 2018-06-24 11:50:56
Color range                              : Limited
Color primaries                          : BT.709
Transfer characteristics                 : BT.709
Matrix coefficients                      : BT.709
Menus                                    : 6,7

Video #2
ID                                       : 7
Format                                   : JPEG
Codec ID                                 : jpeg
Duration                                 : 1h 32mn
Bit rate mode                            : Variable
Bit rate                                 : 529 bps
Width                                    : 640 pixels
Height                                   : 268 pixels
Display aspect ratio                     : 2.40:1
Frame rate mode                          : Variable
Frame rate                               : 0.002 fps
Minimum frame rate                       : 0.002 fps
Maximum frame rate                       : 0.004 fps
Color space                              : YUV
Chroma subsampling                       : 4:2:0
Bit depth                                : 8 bits
Compression mode                         : Lossy
Bits/(Pixel*Frame)                       : 1.542
Stream size                              : 388 KiB (0%)
Title                                    : Chapter Images
Language                                 : French
Default                                  : No
Encoded date                             : UTC 2018-06-24 11:51:48
Tagged date                              : UTC 2018-06-24 11:51:49
Menu For                                 : 1
ColorSpace_ICC                           : RGB

Audio #1
ID                                       : 2
Format                                   : AAC
Format/Info                              : Advanced Audio Codec
Format profile                           : LC
Codec ID                                 : mp4a-40-2
Duration                                 : 1h 32mn
Source duration                          : 1h 32mn
Bit rate mode                            : Variable
Bit rate                                 : 156 Kbps
Maximum bit rate                         : 228 Kbps
Channel(s)                               : 2 channels
Channel positions                        : Front: L R
Sampling rate                            : 48.0 KHz
Frame rate                               : 46.875 fps (1024 SPF)
Compression mode                         : Lossy
Stream size                              : 104 MiB (3%)
Source stream size                       : 104 MiB (3%)
Title                                    : Russian Stereo
Language                                 : Russian
Default                                  : Yes
Alternate group                          : 1
Encoded date                             : UTC 2018-06-24 11:50:50
Tagged date                              : UTC 2018-06-24 11:51:46
Fallback From                            : 4

Audio #2
ID                                       : 3
Format                                   : AAC
Format/Info                              : Advanced Audio Codec
Format profile                           : LC
Codec ID                                 : mp4a-40-2
Duration                                 : 1h 32mn
Source duration                          : 1h 32mn
Bit rate mode                            : Variable
Bit rate                                 : 157 Kbps
Maximum bit rate                         : 237 Kbps
Channel(s)                               : 2 channels
Channel positions                        : Front: L R
Sampling rate                            : 48.0 KHz
Frame rate                               : 46.875 fps (1024 SPF)
Compression mode                         : Lossy
Stream size                              : 104 MiB (3%)
Source stream size                       : 104 MiB (3%)
Title                                    : French Stereo
Language                                 : French
Default                                  : No
Alternate group                          : 1
Encoded date                             : UTC 2018-06-24 11:50:50
Tagged date                              : UTC 2018-06-24 11:51:46
Fallback From                            : 5

Audio #3
ID                                       : 4
Format                                   : AC-3
Format/Info                              : Audio Coding 3
Codec ID                                 : ac-3
Duration                                 : 1h 32mn
Bit rate mode                            : Constant
Bit rate                                 : 384 Kbps
Channel(s)                               : 6 channels
Channel positions                        : Front: L C R, Side: L R, LFE
Sampling rate                            : 48.0 KHz
Frame rate                               : 31.250 fps (1536 SPF)
Bit depth                                : 16 bits
Compression mode                         : Lossy
Stream size                              : 255 MiB (8%)
Title                                    : Russian DD 5.1
Language                                 : Russian
Service kind                             : Complete Main
Default                                  : Inherited From: 2
Alternate group                          : 1
Encoded date                             : UTC 2018-06-24 11:50:50
Tagged date                              : UTC 2018-06-24 11:51:46
Fallback To                              : 2

Audio #4
ID                                       : 5
Format                                   : AC-3
Format/Info                              : Audio Coding 3
Codec ID                                 : ac-3
Duration                                 : 1h 32mn
Bit rate mode                            : Constant
Bit rate                                 : 640 Kbps
Channel(s)                               : 6 channels
Channel positions                        : Front: L C R, Side: L R, LFE
Sampling rate                            : 48.0 KHz
Frame rate                               : 31.250 fps (1536 SPF)
Bit depth                                : 16 bits
Compression mode                         : Lossy
Stream size                              : 425 MiB (13%)
Title                                    : French DD 5.1
Language                                 : French
Service kind                             : Complete Main
Default                                  : No
Alternate group                          : 1
Encoded date                             : UTC 2018-06-24 11:50:50
Tagged date                              : UTC 2018-06-24 11:51:46
Fallback To                              : 3

Menu #1
00:00:00.000                             : 00:00:00.000
00:07:33.286                             : 00:07:33.244
00:15:14.831                             : 00:15:14.831
00:24:13.369                             : 00:24:13.369
00:33:33.261                             : 00:33:33.261
00:42:36.387                             : 00:42:36.387
00:49:49.987                             : 00:49:49.987
00:57:47.589                             : 00:57:47.589
01:04:32.494                             : 01:04:32.494
01:13:25.735                             : 01:13:25.735
01:21:39.228                             : 01:21:39.228
01:28:24.174                             : 01:28:24.132

Menu #2
ID                                       : 6
Codec ID                                 : text
Duration                                 : 1h 32mn
Language                                 : French
Encoded date                             : UTC 2018-06-24 11:51:46
Tagged date                              : UTC 2018-06-24 11:51:46
Bit rate mode                            : CBR
Menu For                                 : 1
00:00:00.000                             : 00:00:00.000
00:07:33.286                             : 00:07:33.244
00:15:14.831                             : 00:15:14.831
00:24:13.369                             : 00:24:13.369
00:33:33.261                             : 00:33:33.261
00:42:36.387                             : 00:42:36.387
00:49:49.987                             : 00:49:49.987
00:57:47.589                             : 00:57:47.589
01:04:32.494                             : 01:04:32.494
01:13:25.735                             : 01:13:25.735
01:21:39.228                             : 01:21:39.228
01:28:24.174                             : 01:28:24.132
x264 [info]: frame I:1495  Avg QP:15.29  size:119804
x264 [info]: frame P:48945 Avg QP:18.25  size: 33281
x264 [info]: frame B:82983 Avg QP:20.24  size:  7525
x264 [info]: consecutive B-frames:  3.3% 31.1% 30.6% 35.0%
x264 [info]: mb I  I16..4:  7.2% 56.1% 36.7%
x264 [info]: mb P  I16..4:  0.8%  3.3%  1.9%  P16..4: 47.1% 26.5% 12.5%  0.0%  0.0%    skip: 8.0%
x264 [info]: mb B  I16..4:  0.1%  0.4%  0.2%  B16..8: 42.8%  9.1%  1.7%  direct: 3.4%  skip:42.3%  L0:39.5% L1:51.3% BI: 9.2%
x264 [info]: 8x8 transform intra:56.0% inter:44.9%
x264 [info]: coded y,uvDC,uvAC intra: 87.4% 87.4% 72.2% inter: 25.1% 26.5% 18.3%
x264 [info]: i16 v,h,dc,p: 44% 22%  5% 29%
x264 [info]: i8 v,h,dc,ddl,ddr,vr,hd,vl,hu: 15%  8%  5% 10% 14% 14% 13% 11% 10%
x264 [info]: i4 v,h,dc,ddl,ddr,vr,hd,vl,hu: 14%  9%  3% 10% 16% 15% 13% 11%  9%
x264 [info]: i8c dc,h,v,p: 49% 17% 21% 13%
x264 [info]: ref P L0: 70.6% 17.0% 12.4%
x264 [info]: ref B L0: 78.0% 22.0%
x264 [info]: kb/s:3496.91

Релиз подготовлен для просмотра на Apple TV, iPad, iPhone, iPod Touch.
Для просмотра данного релиза на компьютере с ОС Windows рекомендуется использовать VLC media player

Трекер:  [ 24-Июн-2018 15:36 ]

  

Скачать .torrent

Размер .torrent файла 32 KB


Размер: 3.14 GB
Хэш (hash) релиза: c179f87dc9f3c799487eb08c22c3a45a49080615

Торренты, похожие на День выборов по-французски Les Tuche 3 скачать торрент

Форум Название Автор Размер S L Добавлен
Видео (iPhone/iPod Touch/iPad) ·%· [ATV3] День выборов по-французски / Les Tuche 3 (Оливье Барру / Olivier Barroux ) [2018, Франция, Комедия, BDRip, HD (1080p)] DUB + Original Galfimbul 65018691296.06 GB 0 0 1529840180

14:36

24-Июн-18

Еще никто не оставлял запись к записи скачать торрент День выборов по-французски Les Tuche 3 . Будь первым!

!Обратная связь