DIRECT DOWNLOAD LINKS | Bones 8.5 | Legion (2ª Temporada) [Adic. Episodio 11]

Скачать через торрент [ATV3] День выборов по-французски Les Tuche 3 бесплатно русская версия torrent активатор

Статистика раздачи
Размер:  6.06 GB   |    Зарегистрирован:  26 дней   |    .torrent скачан:  19 раз   |   
Раздают:  1  
   
загрузка...
 
Автор Сообщение

Galfimbul

avatar Galfimbul


День выборов по-французски / Les Tuche 3
-

/ 10 4.60 / 10
Год выпуска: 2018
Страна: Франция
Жанр: Комедия
Продолжительность: 1:32

Перевод: Дублированный (iTunes)
Оригинальная аудиодорожка: Есть
Cубтитры: Нет
Режиссёр: Оливье Барру
Сценарий: Оливье Барру, Нессим Чихауи, Жюльен Эрве
Продюсер: Ришар Гранпьер
Оператор: Кристиан Эбомниз
Композитор: Мартин Раппено
Художник: Луис Дуру
Монтаж: Флора Вольпельер
В ролях: Жан-Поль Рув, Изабель Нанти, Клер Надо, Сара Штерн, Пьер Лоттен, Тео Фернандез, Фабьен Ара, Кристиан Де Ла Кортина, Жоффруа де ла Тай, Лео Дюссолье

Мировая премьера: 31 января 2018
Цифровой релиз: 6 июня 2018, «НД Плэй»

Описание: Неунывающая семейка Туше возвращается! Теперь старшие и младшие Туше переезжают… в Елисейский дворец. Все началось с того, что Джефф Туше собирался в очередной раз навестить свою тетушку и как следует отдохнуть, однако новый скоростной поезд почему-то не стал останавливаться на его станции. Возмущению Туше-старшего не было предела, так что он решил попросить во всем разобраться самого главного человека во Франции — президента. Когда все попытки достучаться до руководства страны оказались безуспешными, Туше решил действовать по-другому: выдвинуть собственную кандидатуру на президентские выборы. Дальнейшие события складываются таким образом, что именно Туше получает большинство голосов избирателей. Теперь он — президент, который, правда, не имеет ни малейшего представления о том, как управлять страной.
Качество исходника: BDRemux (NNMClub)
Качество: BDRip
Тип: HD (1080p)
Контейнер: M4V
Видео: H.264, 1920x800, 2.40:1, 8 000 Kbps, 23.976 (24000/1001) fps

Аудио 1: Русский/Дублированный (iTunes), AAC / 2.0 / 160 Kbps / 48.0 KHz
Аудио 2: Французский/Оригинальная дорожка , AAC / 2.0 / 160 Kbps / 48.0 KHz
Аудио 3: Русский/Дублированный (iTunes), AC-3 / 5.1 / 384 Kbps / 48.0 KHz
Аудио 4: Французский/Оригинальная дорожка , AC-3 / 5.1 / 640 Kbps / 48.0 KHz
Sort Name: Les Tuche 3
XID: Apple:vendor_id:2018-1061552
contentID: 1338830970
Copyright: © 2018 ESKWAD / PATHE FILMS / TF1 FILMS PRODUCTION / GIALLA PRODUCTIONS / JOUROR
Screenwriters: Оливье Барру, Нессим Чихауи, Жюльен Эрве
Producers: Ришар Гранпьер
Director: Оливье Барру
Cast: Жан-Поль Рув, Изабель Нанти, Клер Надо, Сара Штерн, Пьер Лоттен, Тео Фернандез, Фабьен Ара, Кристиан Де Ла Кортина, Жоффруа де ла Тай, Лео Дюссолье
Studio: ESKWAD
Rating: 60
Long Description: Неунывающая семейка Туше возвращается! Теперь старшие и младшие Туше переезжают... в Елисейский дворец. Все началось с того, что Джефф Туше собирался в очередной раз навестить свою тетушку и как следует отдохнуть, однако новый скоростной поезд почему-то не стал останавливаться на его станции. Возмущению Туше-старшего не было предела, так что он решил попросить во всем разобраться самого главного человека во Франции - президента. Когда все попытки достучаться до руководства страны оказались безуспешными, Туше решил действовать по-другому: выдвинуть собственную кандидатуру на президентские выборы. Дальнейшие события складываются таким образом, что именно Туше получает большинство голосов избирателей. Теперь он - президент, который, правда, не имеет ни малейшего представления о том, как управлять страной.
Description: Неунывающая семейка Туше возвращается! Теперь старшие и младшие Туше переезжают... в Елисейский дворец. Все началось с того, что Джефф Туше собирался в очередной раз навестить свою тетушку и как следует отдохнуть, однако новый скоростной поезд почему-то не стал останавливаться на его станции. Возмущению Туше-старшего не было предела, так что он решил попросить во всем разобраться самого главного человека во Франции - президента...
Release Date: 2018-01-31T08:00:00Z
Genre: Comedy
Artist: Olivier Baroux
Name: Les Tuche 3
General
Complete name                            : /Users/imac/HandBrake/Les Tuche 3 (1080p HD).m4v
Format                                   : MPEG-4
Codec ID                                 : M4V  (M4V /M4A /mp42/isom)
File size                                : 6.06 GiB
Duration                                 : 1h 32mn
Overall bit rate mode                    : Variable
Overall bit rate                         : 9 347 Kbps
Movie name                               : Les Tuche 3
Performer                                : Olivier Baroux
Director                                 : Оливье Барру
Actor                                    : Жан-Поль Рув / Изабель Нанти / Клер Надо / Сара Штерн / Пьер Лоттен / Тео Фернандез / Фабьен Ара / Кристиан Де Ла Кортина / Жоффруа де ла Тай / Лео Дюссолье
Screenplay by                            : Оливье Барру / Нессим Чихауи / Жюльен Эрве
Producer                                 : Ришар Гранпьер
Production studio                        : ESKWAD
Genre                                    : Comedy
ContentType                              : Short Film
Description                              : Неунывающая семейка Туше возвращается! Теперь старшие и младшие Туше переезжают... в Елисейский дворец. Все началось с того, что Джефф Туше собирался в очередной раз навестить свою тетушку и как следует отдохнуть, однако новый скоростной поезд почему-то не стал останавливаться на его станции. Возмущению Туше-старшего не было предела, так что он решил попросить во всем разобраться самого главного человека во Франции - президента...
Recorded date                            : UTC 2018-01-31 08:00:00
Encoded date                             : UTC 2018-06-24 10:44:03
Tagged date                              : UTC 2018-06-24 11:01:31
Copyright                                : © 2018 ESKWAD / PATHE FILMS / TF1 FILMS PRODUCTION / GIALLA PRODUCTIONS / JOUROR
Cover                                    : Yes
Rating                                   : None
Title/Sort                               : Les Tuche 3
LongDescription                          : Неунывающая семейка Туше возвращается! Теперь старшие и младшие Туше переезжают... в Елисейский дворец. Все началось с того, что Джефф Туше собирался в очередной раз навестить свою тетушку и как следует отдохнуть, однако новый скоростной поезд почему-то не стал останавливаться на его станции. Возмущению Туше-старшего не было предела, так что он решил попросить во всем разобраться самого главного человека во Франции - президента. Когда все попытки достучаться до руководства страны оказались безуспешными, Туше решил действовать по-другому: выдвинуть собственную кандидатуру на президентские выборы. Дальнейшие события складываются таким образом, что именно Туше получает большинство голосов избирателей. Теперь он - президент, который, правда, не имеет ни малейшего представления о том, как управлять страной.
AppleStoreCatalogID                      : 1338830970
Vendor                                   : Apple:vendor_id:2018-1061552
ContentRating                            : fr-movie|Tout public|000|

Video #1
ID                                       : 1
Format                                   : AVC
Format/Info                              : Advanced Video Codec
Format profile                           : [email protected]
Format settings                          : CABAC / 4 Ref Frames
Format settings, CABAC                   : Yes
Format settings, ReFrames                : 4 frames
Codec ID                                 : avc1
Codec ID/Info                            : Advanced Video Coding
Duration                                 : 1h 32mn
Source duration                          : 1h 32mn
Bit rate                                 : 8 000 Kbps
Width                                    : 1 920 pixels
Height                                   : 800 pixels
Display aspect ratio                     : 2.40:1
Frame rate mode                          : Variable
Frame rate                               : 23.976 (24000/1001) fps
Minimum frame rate                       : 23.974 fps
Maximum frame rate                       : 23.981 fps
Color space                              : YUV
Chroma subsampling                       : 4:2:0
Bit depth                                : 8 bits
Scan type                                : Progressive
Bits/(Pixel*Frame)                       : 0.217
Stream size                              : 5.18 GiB (86%)
Source stream size                       : 5.18 GiB (86%)
Title                                    : Main Program
Writing library                          : x264 core 155 r2893 b00bcaf
Encoding settings                        : cabac=1 / ref=4 / deblock=1:-2:-2 / analyse=0x3:0x133 / me=umh / subme=10 / psy=1 / psy_rd=1.00:0.15 / mixed_ref=1 / me_range=32 / chroma_me=1 / trellis=2 / 8x8dct=1 / cqm=0 / deadzone=21,11 / fast_pskip=1 / chroma_qp_offset=-3 / threads=25 / lookahead_threads=6 / sliced_threads=0 / nr=0 / decimate=0 / interlaced=0 / bluray_compat=0 / constrained_intra=0 / bframes=16 / b_pyramid=2 / b_adapt=2 / b_bias=0 / direct=3 / weightb=1 / open_gop=0 / weightp=2 / keyint=240 / keyint_min=24 / scenecut=40 / intra_refresh=0 / rc_lookahead=40 / rc=2pass / mbtree=1 / bitrate=8000 / ratetol=1.0 / qcomp=0.70 / qpmin=0 / qpmax=69 / qpstep=4 / cplxblur=20.0 / qblur=0.5 / ip_ratio=1.40 / aq=1:1.00
Language                                 : French
Encoded date                             : UTC 2018-06-24 10:44:03
Tagged date                              : UTC 2018-06-24 10:44:18
Color range                              : Limited
Color primaries                          : BT.709
Transfer characteristics                 : BT.709
Matrix coefficients                      : BT.709
Menus                                    : 6,7

Video #2
ID                                       : 7
Format                                   : JPEG
Codec ID                                 : jpeg
Duration                                 : 1h 32mn
Bit rate mode                            : Variable
Bit rate                                 : 523 bps
Width                                    : 640 pixels
Height                                   : 266 pixels
Display aspect ratio                     : 2.40:1
Frame rate mode                          : Variable
Frame rate                               : 0.002 fps
Minimum frame rate                       : 0.002 fps
Maximum frame rate                       : 0.004 fps
Color space                              : YUV
Chroma subsampling                       : 4:2:0
Bit depth                                : 8 bits
Compression mode                         : Lossy
Bits/(Pixel*Frame)                       : 1.536
Stream size                              : 383 KiB (0%)
Title                                    : Chapter Images
Language                                 : French
Default                                  : No
Encoded date                             : UTC 2018-06-24 10:44:26
Tagged date                              : UTC 2018-06-24 10:44:26
Menu For                                 : 1
ColorSpace_ICC                           : RGB

Audio #1
ID                                       : 2
Format                                   : AAC
Format/Info                              : Advanced Audio Codec
Format profile                           : LC
Codec ID                                 : mp4a-40-2
Duration                                 : 1h 32mn
Source duration                          : 1h 32mn
Bit rate mode                            : Variable
Bit rate                                 : 156 Kbps
Maximum bit rate                         : 228 Kbps
Channel(s)                               : 2 channels
Channel positions                        : Front: L R
Sampling rate                            : 48.0 KHz
Frame rate                               : 46.875 fps (1024 SPF)
Compression mode                         : Lossy
Stream size                              : 104 MiB (2%)
Source stream size                       : 104 MiB (2%)
Title                                    : Russian Stereo
Language                                 : Russian
Default                                  : Yes
Alternate group                          : 1
Encoded date                             : UTC 2018-06-24 10:44:03
Tagged date                              : UTC 2018-06-24 10:44:21
Fallback From                            : 4

Audio #2
ID                                       : 3
Format                                   : AAC
Format/Info                              : Advanced Audio Codec
Format profile                           : LC
Codec ID                                 : mp4a-40-2
Duration                                 : 1h 32mn
Source duration                          : 1h 32mn
Bit rate mode                            : Variable
Bit rate                                 : 157 Kbps
Maximum bit rate                         : 237 Kbps
Channel(s)                               : 2 channels
Channel positions                        : Front: L R
Sampling rate                            : 48.0 KHz
Frame rate                               : 46.875 fps (1024 SPF)
Compression mode                         : Lossy
Stream size                              : 104 MiB (2%)
Source stream size                       : 104 MiB (2%)
Title                                    : French Stereo
Language                                 : French
Default                                  : No
Alternate group                          : 1
Encoded date                             : UTC 2018-06-24 10:44:03
Tagged date                              : UTC 2018-06-24 10:44:19
Fallback From                            : 5

Audio #3
ID                                       : 4
Format                                   : AC-3
Format/Info                              : Audio Coding 3
Codec ID                                 : ac-3
Duration                                 : 1h 32mn
Bit rate mode                            : Constant
Bit rate                                 : 384 Kbps
Channel(s)                               : 6 channels
Channel positions                        : Front: L C R, Side: L R, LFE
Sampling rate                            : 48.0 KHz
Frame rate                               : 31.250 fps (1536 SPF)
Bit depth                                : 16 bits
Compression mode                         : Lossy
Stream size                              : 255 MiB (4%)
Title                                    : Russian DD 5.1
Language                                 : Russian
Service kind                             : Complete Main
Default                                  : Inherited From: 2
Alternate group                          : 1
Encoded date                             : UTC 2018-06-24 10:44:03
Tagged date                              : UTC 2018-06-24 10:44:14
Fallback To                              : 2

Audio #4
ID                                       : 5
Format                                   : AC-3
Format/Info                              : Audio Coding 3
Codec ID                                 : ac-3
Duration                                 : 1h 32mn
Bit rate mode                            : Constant
Bit rate                                 : 640 Kbps
Channel(s)                               : 6 channels
Channel positions                        : Front: L C R, Side: L R, LFE
Sampling rate                            : 48.0 KHz
Frame rate                               : 31.250 fps (1536 SPF)
Bit depth                                : 16 bits
Compression mode                         : Lossy
Stream size                              : 425 MiB (7%)
Title                                    : French DD 5.1
Language                                 : French
Service kind                             : Complete Main
Default                                  : No
Alternate group                          : 1
Encoded date                             : UTC 2018-06-24 10:44:03
Tagged date                              : UTC 2018-06-24 10:44:14
Fallback To                              : 3

Menu #1
00:00:00.000                             : 00:00:00.000
00:07:33.286                             : 00:07:33.244
00:15:14.831                             : 00:15:14.831
00:24:13.369                             : 00:24:13.369
00:33:33.261                             : 00:33:33.261
00:42:36.387                             : 00:42:36.387
00:49:49.987                             : 00:49:49.987
00:57:47.589                             : 00:57:47.589
01:04:32.494                             : 01:04:32.494
01:13:25.735                             : 01:13:25.735
01:21:39.228                             : 01:21:39.228
01:28:24.174                             : 01:28:24.132

Menu #2
ID                                       : 6
Codec ID                                 : text
Duration                                 : 1h 32mn
Language                                 : French
Encoded date                             : UTC 2018-06-24 10:44:21
Tagged date                              : UTC 2018-06-24 10:44:21
Bit rate mode                            : CBR
Menu For                                 : 1
00:00:00.000                             : 00:00:00.000
00:07:33.286                             : 00:07:33.244
00:15:14.831                             : 00:15:14.831
00:24:13.369                             : 00:24:13.369
00:33:33.261                             : 00:33:33.261
00:42:36.387                             : 00:42:36.387
00:49:49.987                             : 00:49:49.987
00:57:47.589                             : 00:57:47.589
01:04:32.494                             : 01:04:32.494
01:13:25.735                             : 01:13:25.735
01:21:39.228                             : 01:21:39.228
01:28:24.174                             : 01:28:24.132
x264 [info]: frame I:1176  Avg QP:16.19  size:241748
x264 [info]: frame P:29821 Avg QP:19.71  size: 74361
x264 [info]: frame B:102426 Avg QP:20.69  size: 29894
x264 [info]: consecutive B-frames:  2.0%  2.8%  9.0% 25.2% 20.0% 33.4%  4.4%  0.9%  0.6%  0.4%  0.1%  0.1%  0.1%  0.2%  0.1%  0.2%  0.6%
x264 [info]: mb I  I16..4: 13.5% 68.7% 17.8%
x264 [info]: mb P  I16..4:  1.7% 10.5%  1.3%  P16..4: 40.6% 20.3% 14.4%  0.6%  0.2%    skip:10.3%
x264 [info]: mb B  I16..4:  0.2%  1.3%  0.1%  B16..8: 40.1%  9.2%  2.6%  direct: 8.5%  skip:38.0%  L0:42.5% L1:42.5% BI:15.0%
x264 [info]: 8x8 transform intra:76.7% inter:50.9%
x264 [info]: direct mvs  spatial:98.2% temporal:1.8%
x264 [info]: coded y,uvDC,uvAC intra: 90.7% 90.0% 75.5% inter: 30.8% 35.6% 20.7%
x264 [info]: i16 v,h,dc,p: 19% 15% 24% 42%
x264 [info]: i8 v,h,dc,ddl,ddr,vr,hd,vl,hu: 11%  9%  9%  9% 13% 13% 12% 12% 12%
x264 [info]: i4 v,h,dc,ddl,ddr,vr,hd,vl,hu: 12% 10%  4%  8% 15% 14% 13% 11% 12%
x264 [info]: i8c dc,h,v,p: 50% 17% 16% 17%
x264 [info]: Weighted P-Frames: Y:1.9% UV:1.1%
x264 [info]: ref P L0: 49.7% 12.3% 27.9%  9.8%  0.2%  0.0%
x264 [info]: ref B L0: 82.1% 14.8%  3.2%
x264 [info]: ref B L1: 93.7%  6.3%
x264 [info]: kb/s:7998.43

Релиз подготовлен для просмотра на Apple TV, iPad, iPhone, iPod Touch.
Для просмотра данного релиза на компьютере с ОС Windows рекомендуется использовать VLC media player

Трекер:  [ 24-Июн-2018 14:36 ]

  

Скачать .torrent

Размер .torrent файла 61 KB


Размер: 6.06 GB
Хэш (hash) релиза: c352477d343d60eff29f9fd47ff1f14010daaf00

Еще никто не оставлял запись к записи скачать торрент [ATV3] День выборов по-французски Les Tuche 3 . Будь первым!

!Обратная связь