Fantômas | 250 meilleurs films | Archer HDTV

Скачать порно через торрент [18VR.com] Sofi Goldfinger UnionPeer.org бесплатно онлайн HD качество

Скачать новое порно 2015, 2014 новинки через торрент UnionPeer.org

Порно торрент бесплатно ЮнионПир.орг

Статистика раздачи
Размер:  3.72 GB   |    Зарегистрирован:  1 месяц 26 дней   |    .torrent скачан:  228 раз   |   
Раздают:  1  
   
загрузка...
 
Автор Сообщение

Galfimbul

avatar Galfimbul


Имя актрисы: Sofi Goldfinger
Название ролика: DP Tissue Massage
Сайт: 18VR.com

Год производства: 2017 г.
Жанр: Anal, Blonde, Blowjob, Cowgirl, Reverse Cowgirl, DP, Deepthroat, MILF, Shaved Pussy, Threesome FMM
Продолжительность: 42:09

Описание: Your girl, Sophie Goldfinger has been a little stiff lately. Her weekly massages have been helpful, but she is still a somewhat tense. When she suggests a threesome with her therapist, you’re initially apprehensive, but once she’s sucking your cock and getting her ass eaten, you realize this is exactly what she needs. This Russian slut is ready for you, and this session is starting to look more like cock-based acupuncture than a regular massage.

Тип HD видео: 1440p
Тип устройства: Samsung Gear VR
Тип 3D: SideBySide
Формат видео: MP4
Видео: H264 2880x1440 59.94fps 12457kbps
Аудио: AAC 48000Hz stereo 165kbps
General
Complete name : D:\Downloads\VR\DP Tissue Massage - Sofi Goldfinger Gear Vr.mp4
Format : MPEG-4
Format profile : Base Media / Version 2
Codec ID : mp42
File size : 3.72 GiB
Duration : 42mn 9s
Overall bit rate mode : Variable
Overall bit rate : 12.6 Mbps
Encoded date : UTC 2017-08-15 20:26:15
Tagged date : UTC 2017-08-15 20:26:15
Writing application : HandBrake 0.10.2 2015061100

Video
ID : 1
Format : AVC
Format/Info : Advanced Video Codec
Format profile : [email protected]
Format settings, CABAC : Yes
Format settings, ReFrames : 2 frames
Codec ID : avc1
Codec ID/Info : Advanced Video Coding
Duration : 42mn 9s
Bit rate : 12.5 Mbps
Width : 2 880 pixels
Height : 1 440 pixels
Display aspect ratio : 2.000
Frame rate mode : Variable
Frame rate : 59.940 fps
Minimum frame rate : 59.920 fps
Maximum frame rate : 59.960 fps
Color space : YUV
Chroma subsampling : 4:2:0
Bit depth : 8 bits
Scan type : Progressive
Bits/(Pixel*Frame) : 0.050
Stream size : 3.67 GiB (99%)
Writing library : x264 core 142 r2479 dd79a61
Encoding settings : cabac=1 / ref=2 / deblock=1:0:0 / analyse=0x1:0x111 / me=umh / subme=8 / psy=1 / psy_rd=1.00:0.00 / mixed_ref=1 / me_range=16 / chroma_me=1 / trellis=1 / 8x8dct=0 / cqm=0 / deadzone=21,11 / fast_pskip=1 / chroma_qp_offset=-2 / threads=12 / lookahead_threads=2 / sliced_threads=0 / nr=0 / decimate=1 / interlaced=0 / bluray_compat=0 / constrained_intra=0 / bframes=3 / b_pyramid=0 / b_adapt=2 / b_bias=0 / direct=3 / weightb=1 / open_gop=0 / weightp=2 / keyint=600 / keyint_min=60 / scenecut=40 / intra_refresh=0 / rc_lookahead=50 / rc=abr / mbtree=1 / bitrate=12500 / ratetol=1.0 / qcomp=0.60 / qpmin=0 / qpmax=69 / qpstep=4 / vbv_maxrate=20000 / vbv_bufsize=25000 / nal_hrd=none / filler=0 / ip_ratio=1.40 / aq=1:1.00
Encoded date : UTC 2017-08-15 20:26:15
Tagged date : UTC 2017-08-15 20:26:15
Color primaries : BT.709
Transfer characteristics : BT.709
Matrix coefficients : BT.709

Audio
ID : 2
Format : AAC
Format/Info : Advanced Audio Codec
Format profile : LC
Codec ID : 40
Duration : 42mn 9s
Bit rate mode : Variable
Bit rate : 165 Kbps
Channel(s) : 2 channels
Channel positions : Front: L R
Sampling rate : 48.0 KHz
Compression mode : Lossy
Stream size : 49.8 MiB (1%)
Title : Stereo
Language : English
Encoded date : UTC 2017-08-15 20:26:15
Tagged date : UTC 2017-08-15 20:26:15


Трекер:  [ 24-Июн-2018 14:26 ]

  

Скачать .torrent

Размер .torrent файла 19 KB


Размер: 3.72 GB
Хэш (hash) релиза: c3ffdeb5f94ae82dbf68e9ef5b2cca4babdd54f3

Еще никто не оставлял запись к записи скачать торрент [18VR.com] Sofi Goldfinger . Будь первым!

!Обратная связь