Philip Jose Farmer - The Green Odyssey | Techniques de base - Menuiserie : assemblages (L'essentiel du bricolage) | Rome Kanda

Скачать через торрент Бобры Серии: 1-2 из 2 Фильм бесплатно в хорошем качестве torrent

Скачивайте на UnionPeer.org фильмы через торрент без регистрации. Новинки кино в хорошем качестве через торрент. На UnionPeer.org можно скачать через торрент фильмы 2014 и 2015 годов. Самые новые фильмы.

Скачать торрент Бобры Серии: 1-2 из 2 бесплатно через .torrent фильм мультфильм сериал

Статистика раздачи
Размер:  4.06 GB   |    Зарегистрирован:  25 дней   |    .torrent скачан:  58 раз   |   
Раздают:  1  
   
загрузка...
 
Автор Сообщение

Galfimbul

avatar Galfimbul


Бобры

Год выпуска: 2018
Производство: Продюсерский центр «Браво» по заказу канала «НТВ»
Жанр: мелодрама
Продолжительность: ~00:45:00 серия
Субтитры: нет

Режиссёр: Юрий Попович

В ролях: Константин Соловьёв, Екатерина Вуличенко, Фёдор Лавров, Владислав Ветров, Денис Беспалый, Глеб Козляев
Описание: Действие происходит в небольшом поселке Ольховка. Сюда, к продавщице Тамаре, приезжает Владимир Суворов, военный пенсионер, отдавший 25 лет службе в ВВС. Вначале она недоумевает, зачем он приехал, ведь курортные романы должны там и заканчиваться, а он сутки гнал машину из Москвы, это что, разведка боем? Но потом сознается, что она тоже забыть его не может. Она решает, что им надо некоторое время пожить вместе, посмотреть друг на друга, а потом принять решение, как дальше быть. А то, что у нее мужик незнакомый дома ночует, неважно, ведь к ней в поселке особое отношение, она из семьи мэра. В Ольховке свой мир. Правит всем семейство Бобров, это фамилия такая. У всех жителей есть работа, лучшие в области врачи, преступности практически нет. Тут все тихо, по-семейному, каждую субботу люди приходят в клуб, смотрят кино. По соседству с Тамарой живет писатель Кругликов. Он со своими гонорарами мог бы жить в Европе, но выбрал Ольховку. По его словам, здесь настоящая Россия, которую городские интеллигенты не знают и боятся. На первый взгляд полная идиллия, живи и радуйся. Но приживется ли здесь Суворов или нет, решать будет не он, и не Тамара, а мэр, Николай Бобер, ведь, здесь его территория, его законы. Сможет ли Суворов, привыкший всю жизнь выполнять приказы, жить по уставу, по которому живет вся Ольховка...

Реклама: Нет.

Кинопоиск
Все раздачи сериала
Sample

Качество: WEBRip 1080p - Nikolspup
Формат: MKV
Видео кодек: H.264
Аудио кодек: AC3
Видео: MPEG4 AVC Video, H264, 16:9, 1920x1080, 25 fps, ~6000 kbps, 0.116 bit/pixel
Аудио: AC3 Dolby Digital, 48.0 kHz, 2/0 (L,R) ch, 192 kbps
General
Unique ID : 170383557821819238292495930562254361582 (0x802EADFA8790A5B5A0DF33E9463E53EE)
Complete name : D:\Bobry.2017.WEB-DL.(1080p).Nikolspup\Bobry.(01.seriya.iz.02).2017.WEB-DL.(1080p).Nikolspup.mkv
Format : Matroska
Format version : Version 4 / Version 2
File size : 1.97 GiB
Duration : 45 min 36 s
Overall bit rate mode : Constant
Overall bit rate : 6 186 kb/s
Encoded date : UTC 2018-06-23 20:11:56
Writing application : mkvmerge v7.8.0 ('River Man') 32bit built on Mar 27 2015 16:18:02
Writing library : libebml v1.3.1 + libmatroska v1.4.2

Video
ID : 1
Format : AVC
Format/Info : Advanced Video Codec
Format profile : [email protected]
Format settings : 2 Ref Frames
Format settings, CABAC : No
Format settings, ReFrames : 2 frames
Codec ID : V_MPEG4/ISO/AVC
Duration : 45 min 35 s
Bit rate mode : Constant
Bit rate : 6 000 kb/s
Width : 1 920 pixels
Height : 1 080 pixels
Display aspect ratio : 16:9
Frame rate mode : Constant
Frame rate : 25.000 FPS
Standard : PAL
Color space : YUV
Chroma subsampling : 4:2:0
Bit depth : 8 bits
Scan type : Progressive
Bits/(Pixel*Frame) : 0.116
Stream size : 1.91 GiB (97%)
Default : Yes
Forced : No
Color range : Limited
Color primaries : BT.709
Transfer characteristics : BT.709
Matrix coefficients : BT.709

Audio
ID : 2
Format : AC-3
Format/Info : Audio Coding 3
Codec ID : A_AC3
Duration : 45 min 36 s
Bit rate mode : Constant
Bit rate : 192 kb/s
Channel(s) : 2 channels
Channel positions : Front: L R
Sampling rate : 48.0 kHz
Frame rate : 31.250 FPS (1536 SPF)
Bit depth : 16 bits
Compression mode : Lossy
Stream size : 62.6 MiB (3%)
Language : Russian
Service kind : Complete Main
Default : Yes
Forced : No


Трекер:  [ 24-Июн-2018 13:12 ]

  

Скачать .torrent

Размер .torrent файла 21 KB


Размер: 4.06 GB
Хэш (hash) релиза: 3081c5a9ab5a25962aac273634d2e563a9096896
Подписка на обновления:

Торренты, похожие на Бобры Серии: 1-2 из 2 скачать торрент

Форум Название Автор Размер S L Добавлен
Российские сериалы ·· Бобры / Серии: 1-2 из 2 (Юрий Попович) [2018, мелодрама, WEBRip] Galfimbul 11990732801.12 GB 0 0 1529833344

12:42

24-Июн-18

Российские сериалы ·· Выхожу тебя искать-2 / Сезон 2 / Серии: 1-2 из 12 (Сергей Бобров (II)) [2013, Мелодрама, SATRip] damien1990 77273395207.2 GB 0 0 1365803010

00:43

13-Апр-13

Еще никто не оставлял запись к записи скачать торрент Бобры Серии: 1-2 из 2 . Будь первым!

!Обратная связь