Hannes Duscher | Giochi MAC | [DarkX]Victoria Voxxx - Cultural Differences (NEW***07 ...

Скачать через торрент Мишель Серии: 1-4 из 4 Фильм бесплатно в хорошем качестве torrent

Скачивайте на UnionPeer.org фильмы через торрент без регистрации. Новинки кино в хорошем качестве через торрент. На UnionPeer.org можно скачать через торрент фильмы 2014 и 2015 годов. Самые новые фильмы.

Скачать торрент Мишель Серии: 1-4 из 4 бесплатно через .torrent фильм мультфильм сериал

Статистика раздачи
Размер:  2.72 GB   |    Зарегистрирован:  23 дня   |    .torrent скачан:  73 раза   |   
Раздают:  1  
   
загрузка...
 
Автор Сообщение

Galfimbul

avatar Galfimbul


Мишель

Год выпуска: 2018
Производство: "Паламеда Продакшн", ПЦ "Фабула"
Жанр: мелодрама
Продолжительность: ~00:46:00 серия
Субтитры: нет

Режиссёр: Ольга Перуновская

В ролях: Арина Постникова, Алексей Демидов, Евгения Нохрина, Ольга Сизова, Вероника Пляшкевич, Андрей Сенькин, Игорь Сигов

Описание: Мишель получила свое необычное имя благодаря отцу, которого ей не суждено было увидеть. Накануне свадьбы он был арестован за ограбление, которого не совершал. Мишель росла без отца, и мать очень надеялась, что дочка не повторит ее судьбу. Но… накануне свадьбы жениха Мишель арестовывают за убийство. Мать отправила Мишель в Москву к своей бывшей соседке Эмме. Потрясенная теплым приемом, Мишель — наивная провинциальная девушка и подумать не могла, что и радушие Эммы, и стремительный карьерный рост в ее фирме, и даже помолвка с ее сыном — части тщательно продуманной игры…

Реклама: Нет.

Кинопоиск

Sample

Качество: WEBRip - Files-x
Формат: AVI
Видео кодек: XviD
Аудио кодек: AC3
Видео: 720x400 (1.80:1), 25 fps, XviD build 73 ~1900 kbps avg, 0.265 bit/pixel
Аудио: 48.0 kHz, AC3 Dolby Digital, 2/0 (L,R) ch, ~ 192 kbps
General
Complete name : D:\Мишель(2018). WEB-DLRip.Files-x\1,Мишель(2018). WEB-DLRip.Files-x.avi
Format : AVI
Format/Info : Audio Video Interleave
File size : 1.36 GiB
Duration : 1 h 32 min
Overall bit rate : 2 112 kb/s
Writing application : VirtualDubMod 1.5.10.3 | www.virtualdub-fr.org || (build 2550/release)
Writing library : VirtualDubMod build 2550/release

Video
ID : 0
Format : MPEG-4 Visual
Format profile : Advanced [email protected]
Format settings : BVOP1 / Custom Matrix
Format settings, BVOP : 1
Format settings, QPel : No
Format settings, GMC : No warppoints
Format settings, Matrix : Custom
Codec ID : XVID
Codec ID/Hint : XviD
Duration : 1 h 32 min
Bit rate : 1 911 kb/s
Width : 720 pixels
Height : 400 pixels
Display aspect ratio : 16:9
Frame rate : 25.000 FPS
Color space : YUV
Chroma subsampling : 4:2:0
Bit depth : 8 bits
Scan type : Progressive
Compression mode : Lossy
Bits/(Pixel*Frame) : 0.265
Stream size : 1.23 GiB (90%)
Writing library : XviD 73

Audio
ID : 1
Format : AC-3
Format/Info : Audio Coding 3
Codec ID : 2000
Duration : 1 h 32 min
Bit rate mode : Constant
Bit rate : 192 kb/s
Channel(s) : 2 channels
Channel positions : Front: L R
Sampling rate : 48.0 kHz
Frame rate : 31.250 FPS (1536 SPF)
Bit depth : 16 bits
Compression mode : Lossy
Stream size : 127 MiB (9%)
Alignment : Split accross interleaves
Interleave, duration : 40 ms (1.00 video frame)
Interleave, preload duratio : 500 ms
Service kind : Complete Main


Трекер:  [ 24-Июн-2018 13:12 ]

  

Скачать .torrent

Размер .torrent файла 14 KB


Размер: 2.72 GB
Хэш (hash) релиза: dd020fe992883c0ac69bfec4a62a280e30c0d96e
Подписка на обновления:

Торренты, похожие на Мишель Серии: 1-4 из 4 скачать торрент

Форум Название Автор Размер S L Добавлен
Российские сериалы ·· Мишель / Серии: 1-4 из 4 (Ольга Перуновская) [2018, мелодрама, HDTVRip 720p] Galfimbul 57378947855.34 GB 0 0 1529835154

13:12

24-Июн-18

Зарубежные сериалы ·· Смерть мозга / Безмозглые / Braindead / Сезон: 1 / Серии: 1-4 из 13 (Роберт и Мишель Кинг) [2016, фантастика, драма, комедия, HDTVRip 720p] MVO (RATTLEBOX) Galfimbul 26549904792.47 GB 0 0 1468529389

23:49

14-Июл-16

Зарубежные сериалы ·· Двойка / The Deuce / Сезон: 01 / Серии: 1-4 из 8 (Джеймс Франко, Мишель МакЛарен, Ута Бризвитц) [2017, США, драма, WEB-DLRip] MVO (NewStudio) + Original Galfimbul 31682053122.95 GB 0 0 1507316042

21:54

6-Окт-17

Зарубежные сериалы ·· Что такое хорошо, что такое плохо / Не делай того, не делай сего / Отчаянные родители / Fais pas ci, fais pas ca / Сезон: 7 / Серии: 1-4 из 6 (Мишель Леклер / Michel Leclerc) [2014 - 2015, Франция, комедия, DVB] Original + Rus Sub (Eclair Media) Galfimbul 49984944454.66 GB 0 0 1481982813

16:53

17-Дек-16

Зарубежные сериалы ·· Особо Тяжкие Преступления / Major Crimes / Сезон: 5 / Серии: 1-4 из 19 (Дэвид МакУиртер, Стив Робин, Мишель М. Робин) [2016, детектив, HDTVRip] VO (DexterTV) Galfimbul 21005773401.96 GB 0 0 1468614007

23:20

15-Июл-16

Зарубежные сериалы ·· Остатки / Оставленные / The Leftovers / Сезон: 2 / Серии: 1-4 из 10 (Мими Ледер, Питер Берг, Мишель Максвелл МакЛарен) [2015, Фэнтези, драма, детектив, WEB-DLRip 400p] MVO (Amedia) + Original + Subs (Rus) Galfimbul 46069415374.29 GB 0 0 1446522663

06:51

3-Ноя-15

Зарубежные сериалы ·· Особо Тяжкие Преступления / Major Crimes / Сезон: 4 / Серии: 1-23 из 23 (Дэвид МакУиртер, Стив Робин, Мишель М. Робин) [2015, США, детектив, HDTVRip 1080p] VO (DexterTV) + Original Galfimbul 8020054978174.69 GB 0 0 1481975690

14:54

17-Дек-16

Зарубежные сериалы ·· Игра престолов / Game of Thrones / Сезон: 4 / Серии: 1-10 из 10 (Д.Б.Вейсс, Алекс Грейвз, Мишель Максвелл МакЛарен, Алик Сахаров, Нил Маршал) [2014, США, фэнтези, драма, HDTVRip] MVO (AlexFilm) + Original Galfimbul 66834350086.22 GB 0 0 1479367255

10:20

17-Ноя-16

Зарубежные сериалы ·· Во все тяжкие / Breaking Bad / Сезон: 4 / Серии: 1-13 из 13 (Адам Бернштейн, Мишель Максвелл МакЛарен, Винс Джиллигэн) [2011, Драма, криминал, триллер, BDRemux 1080p] MVO (LostFilmTV) + DVO (Кубик в Кубе) + MVO (FoxCrime) + Original Galfimbul 130564930093121.6 GB 0 0 1455376731

18:18

13-Фев-16

Зарубежные сериалы ·· Во все тяжкие / Breaking Bad / Сезон: 4 / Серии: 1-13 из 13 (Адам Бернштейн, Мишель Максвелл МакЛарен, Винс Джиллигэн) [2011, Драма, Криминал, BDRip 720p] MVO (LostFilm) Galfimbul 2070717640119.29 GB 0 0 1446527715

08:15

3-Ноя-15

Зарубежные сериалы ·· Звёздный Путь: Энтерпрайз / Star Trek: Enterprise / Сезон: 1-4 / Серии: 98 из 98 (Дэвид Ливингстон / David Livingston, Мишель Веджэр / Allan Kroeker) [2001-2004, США, фантастика, боевик, WEB-DL] MVO (SDI Media) + Original + Rus Subs Galfimbul 3758520916035 GB 0 0 1502216571

21:22

8-Авг-17

Зарубежные сериалы ·· Особо Тяжкие Преступления / Major Crimes / Сезон: 4 / Серия: 1 из 15 (Дэвид МакУиртер, Стив Робин, Мишель М. Робин) [2015, детектив, WEB-DLRip] VO (DexterTV) Galfimbul 545740874520 MB 0 0 1434475368

20:22

16-Июн-15

Документальные фильмы и телепередачи ·· Великие горы мира / Tous les sommets du monde / Auf den Gipfeln der Welt (Жан-Мари Баррер, Жан-Мишель Веннемани, Жан-Кристоф Клотц, Эрик Вастио) [2010, Документальный, путешествия, этнография, туризм, социология, SATRip] (1-4 серии из 20) Galfimbul 20749066241.93 GB 0 0 1365713569

23:52

11-Апр-13

Еще никто не оставлял запись к записи скачать торрент Мишель Серии: 1-4 из 4 . Будь первым!

!Обратная связь