D.Gray-man Hallow | On My Block | Mi Vecino Es Un Espia

Скачать через торрент Правило боя Серии: 1-4 из 4 Фильм бесплатно в хорошем качестве torrent

Скачивайте на UnionPeer.org фильмы через торрент без регистрации. Новинки кино в хорошем качестве через торрент. На UnionPeer.org можно скачать через торрент фильмы 2014 и 2015 годов. Самые новые фильмы.

Скачать торрент Правило боя Серии: 1-4 из 4 бесплатно через .torrent фильм мультфильм сериал

Статистика раздачи
Размер:  2.05 GB   |    Зарегистрирован:  1 месяц 27 дней   |    .torrent скачан:  97 раз   |   
Раздают:  1  
   
загрузка...
 
Автор Сообщение

Galfimbul

avatar Galfimbul


Правило боя

Год выпуска: 2017
Производство: Good Morning Films
Жанр: боевик, спорт
Продолжительность: ~00:41:00 серия
Субтитры: нет

Режиссёр: Алексей Шапарев

В ролях: Владислав Никитюк, Станислав Боклан, Алексей Горбунов, Евгений Галич, Александр Усик, Дарья Трегубова, Ахтем Сеитаблаев, Дмитрий Ступка, Сергей Романюк, Павел Ли

Описание: В прошлом Карпов был очень известным олимпийским чемпионом по боксу. Сейчас же он простой тренер и готовит своего сына Игоря к чемпионскому поединку. В качестве спарринг-партнера для него он берёт обычного парня с улицы Тараса. Но обстоятельства меняются, и теперь сам спарринг-партнёр становится главной звездой поединка. Он обязан помочь Карпову и драться против страшного противника. На кону чемпионский титул. Это шанс для Тараса, и он не имеет права его упустить.

Реклама: Нет.



Sample

Качество: WEBRip-AVC - Серый1779
Формат: MKV
Видео кодек: H.264
Аудио кодек: AC3
Видео: MPEG4 AVC Video, H264, 16:9, 1024x576, 25 fps, ~1600 kbps, 0.109 bit/pixel
Аудио: AC3 Dolby Digital, 48.0 kHz, 2/0 (L,R) ch, 192 kbps
General
Unique ID : 170402460937535864983727332026311777825 (0x803251F964A6498EB5E7C30E92101E21)
Complete name : D:\Правило боя.(2017).WEBRip.(AVC).Files-x\01.Правило боя.(2017).WEBRip.(AVC).by.Серый1779.Files-x.mkv
Format : Matroska
Format version : Version 2
File size : 526 MiB
Duration : 41 min 0 s
Overall bit rate : 1 794 kb/s
Encoded date : UTC 2018-06-22 23:41:36
Writing application : mkvmerge v7.8.0 ('River Man') 32bit built on Apr 3 2015 12:11:22
Writing library : libebml v1.3.1 + libmatroska v1.4.2

Video
ID : 1
Format : AVC
Format/Info : Advanced Video Codec
Format profile : [email protected]
Format settings : CABAC / 9 Ref Frames
Format settings, CABAC : Yes
Format settings, ReFrames : 9 frames
Codec ID : V_MPEG4/ISO/AVC
Duration : 41 min 0 s
Bit rate : 1 600 kb/s
Width : 1 024 pixels
Height : 576 pixels
Display aspect ratio : 16:9
Frame rate mode : Constant
Frame rate : 25.000 FPS
Color space : YUV
Chroma subsampling : 4:2:0
Bit depth : 8 bits
Scan type : Progressive
Bits/(Pixel*Frame) : 0.109
Stream size : 459 MiB (87%)
Writing library : x264 core 146 r2538 121396c
Encoding settings : cabac=1 / ref=9 / deblock=1:-2:-1 / analyse=0x3:0x133 / me=umh / subme=9 / psy=1 / psy_rd=1.00:0.15 / mixed_ref=1 / me_range=32 / chroma_me=1 / trellis=2 / 8x8dct=1 / cqm=0 / deadzone=21,11 / fast_pskip=0 / chroma_qp_offset=-3 / threads=18 / lookahead_threads=3 / sliced_threads=0 / nr=0 / decimate=1 / interlaced=0 / bluray_compat=0 / constrained_intra=0 / bframes=9 / b_pyramid=2 / b_adapt=2 / b_bias=0 / direct=1 / weightb=1 / open_gop=0 / weightp=2 / keyint=250 / keyint_min=25 / scenecut=40 / intra_refresh=0 / rc=2pass / mbtree=0 / bitrate=1600 / ratetol=1.0 / qcomp=0.60 / qpmin=0 / qpmax=69 / qpstep=4 / cplxblur=20.0 / qblur=0.5 / ip_ratio=1.40 / pb_ratio=1.30 / aq=2:1.00
Default : Yes
Forced : No
Color range : Limited
Color primaries : BT.709
Transfer characteristics : BT.709
Matrix coefficients : BT.709

Audio
ID : 2
Format : AC-3
Format/Info : Audio Coding 3
Codec ID : A_AC3
Duration : 41 min 0 s
Bit rate mode : Constant
Bit rate : 192 kb/s
Channel(s) : 2 channels
Channel positions : Front: L R
Sampling rate : 48.0 kHz
Frame rate : 31.250 FPS (1536 SPF)
Bit depth : 16 bits
Compression mode : Lossy
Stream size : 56.3 MiB (11%)
Service kind : Complete Main
Default : Yes
Forced : No


Трекер:  [ 23-Июн-2018 16:42 ]

  

Скачать .torrent

Размер .torrent файла 11 KB


Размер: 2.05 GB
Хэш (hash) релиза: 1282677a95778df0dbbe058c07752dee27b92d9a
Подписка на обновления:

Торренты, похожие на Правило боя Серии: 1-4 из 4 скачать торрент

Форум Название Автор Размер S L Добавлен
Российские сериалы ·%· Правило боя / Серии: 1-4 из 4 (Алексей Шапарев) [2017, боевик, спорт, WEBRip] Galfimbul 23327436802.17 GB 0 0 1532344344

14:12

23-Июл-18

Еще никто не оставлял запись к записи скачать торрент Правило боя Серии: 1-4 из 4 . Будь первым!

!Обратная связь