Michael James Shaw | Рада Митчелл | USB MultiBoot.

Скачать через торрент Правда или действие Truth or Dare бесплатно русская версия torrent активатор

Статистика раздачи
Размер:  3.24 GB   |    Зарегистрирован:  27 дней   |    .torrent скачан:  30 раз   |   
Раздают:  1  
   
загрузка...
 
Автор Сообщение

Galfimbul

avatar Galfimbul


Правда или действие / Truth or Dare

(Extended Cut)

«The Producer of Happy Death Day and Get Out dares you to play»

5.677 / 10 4.70 / 10
Год выпуска: 2018
Страна: США
Жанр: Ужасы, триллер
Продолжительность: 01:40:32

Перевод: Дублированный (iTunes)
Оригинальная аудиодорожка: Нет
Cубтитры: Нет
Режиссёр: Джефф Уодлоу
Сценарий: Майкл Рейш, Джиллиан Джейкобс, Кристофер Роач
Продюсер: Джейсон Блум, Купер Самуэльсон, Лаура Альтман
Оператор: Жак Жуффре
Композитор: Мэттью Марджесон
Художник: Мелани Джонс, Алисса Хилл, Лиза Норсиа
Монтаж: Шон Албертсон
В ролях: Люси Хейл, Тайлер Пози, Вайолетт Бин, Лэндон Либуарон, Нолан Джерард Фанк, Сэм Лернер, София Тейлор Али, Брэйди Смит, Хейден Сзето, Морган Линдхольм

Бюджет: $3 500 000
Сборы в США: $40 717 020
Сборы в мире: + $48 000 000 = $88 717 020
Сборы в России: $2 658 341

Мировая премьера: 12 апреля 2018
Премьера (РФ): 26 апреля 2018, «UPI»

Цифровой релиз: 21 июня 2018, «Universal»

Описание: Обычная игра «Правда или действие» превращается в жестокую гонку со смертью, когда к процессу подключается нечто сверхъестественное. Стоит кому-то из участников соврать или не выполнить положенное действие, его ждет жестокая расправа. Кто в итоге сможет выйти победителем в жестокой игре?
Качество исходника: WEB-DL 720p (BlueBird)
Качество: WEB-DL
Тип: HD (720p)
Контейнер: M4V
Видео: H.264, 1280x532, 2.40:1, 4 063 Kbps, 23.976 fps

Аудио 1: Русский/Дублированный (iTunes), AAC / 2.0 / 160 Kbps / 48.0 KHz
Аудио 2: Русский/Дублированный (iTunes), AC-3 / 5.1 / 384 Kbps / 48.0 KHz
Sort Name: Правда или действие - расширенную версию
XID: Apple:vendor_id:2018-1045590
contentID: 1374382756
Copyright: © 2018 Universal Studios. All Rights Reserved.
Screenwriters: Майкл Рейш, Джиллиан Джейкобс, Кристофер Роач
Producers: Джейсон Блум, Купер Самуэльсон, Лаура Альтман
Director: Джефф Уодлоу
Cast: Люси Хейл, Тайлер Пози, Вайолетт Бин, Лэндон Либуарон, Нолан Джерард Фанк, Сэм Лернер, София Тейлор Али, Брэйди Смит, Хейден Сзето, Морган Линдхольм
Studio: Universal Pictures
Rating: 135
Long Description: Обычная игра "Правда или действие" превращается в жестокую гонку со смертью, когда к процессу подключается нечто сверхъестественное. Стоит кому-то из участников соврать или не выполнить положенное действие, его ждет жестокая расправа. Кто в итоге сможет выйти победителем в жестокой игре?
Description: Обычная игра "Правда или действие" превращается в жестокую гонку со смертью, когда к процессу подключается нечто сверхъестественное. Стоит кому-то из участников соврать или не выполнить положенное действие, его ждет жестокая расправа. Кто в итоге сможет выйти победителем в жестокой игре?
Release Date: 2018-04-12T08:00:00Z
Genre: Horror
Artist: Jeff Wadlow
Name: Правда или действие - расширенную версию (2018)
General
Complete name : /Users/imac/HandBrake/Truth.or.Dare.WEB-DL.720p.m4v
Format : MPEG-4
Codec ID : M4V
File size : 3.24 GiB
Duration : 1h 40mn
Overall bit rate mode : Variable
Overall bit rate : 4 612 Kbps
Movie name : Правда или действие - расширенную версию (2018)
Performer : Jeff Wadlow
Director : Джефф Уодлоу
Actor : Люси Хейл / Тайлер Пози / Вайолетт Бин / Лэндон Либуарон / Нолан Джерард Фанк / Сэм Лернер / София Тейлор Али / Брэйди Смит / Хейден Сзето / Морган Линдхольм
Screenplay by : Майкл Рейш / Джиллиан Джейкобс / Кристофер Роач
Producer : Джейсон Блум / Купер Самуэльсон / Лаура Альтман
Production studio : Universal Pictures
Genre : Horror
ContentType : Short Film
Description : Обычная игра "Правда или действие" превращается в жестокую гонку со смертью, когда к процессу подключается нечто сверхъестественное. Стоит кому-то из участников соврать или не выполнить положенное действие, его ждет жестокая расправа. Кто в итоге сможет выйти победителем в жестокой игре?
Recorded date : UTC 2018-04-12 08:00:00
Encoded date : UTC 2018-06-23 10:41:08
Tagged date : UTC 2018-06-23 10:54:07
Copyright : © 2018 Universal Studios. All Rights Reserved.
Cover : Yes
Rating : None
Title/Sort : Правда или действие - расширенную версию
LongDescription : Обычная игра "Правда или действие" превращается в жестокую гонку со смертью, когда к процессу подключается нечто сверхъестественное. Стоит кому-то из участников соврать или не выполнить положенное действие, его ждет жестокая расправа. Кто в итоге сможет выйти победителем в жестокой игре?
HDVideo : Yes
AppleStoreCatalogID : 1374382756
Vendor : Apple:vendor_id:2018-1045590
ContentRating : ru-movie|16+|375|

Video #1
ID : 1
Format : AVC
Format/Info : Advanced Video Codec
Format profile : [email protected]
Format settings, CABAC : No
Format settings, ReFrames : 2 frames
Codec ID : avc1
Codec ID/Info : Advanced Video Coding
Duration : 1h 40mn
Bit rate : 4 063 Kbps
Width : 1 280 pixels
Height : 532 pixels
Display aspect ratio : 2.40:1
Frame rate mode : Variable
Frame rate : 23.976 fps
Minimum frame rate : 23.810 fps
Maximum frame rate : 24.390 fps
Color space : YUV
Chroma subsampling : 4:2:0
Bit depth : 8 bits
Scan type : Progressive
Bits/(Pixel*Frame) : 0.249
Stream size : 2.85 GiB (88%)
Title : Main Program
Language : English
Encoded date : UTC 2018-06-23 10:41:08
Tagged date : UTC 2018-06-23 10:41:32
Color range : Limited
Color primaries : BT.709
Transfer characteristics : BT.709
Matrix coefficients : BT.709

Video #2
ID : 5
Format : JPEG
Codec ID : jpeg
Duration : 1h 40mn
Bit rate mode : Variable
Bit rate : 711 bps
Width : 640 pixels
Height : 266 pixels
Display aspect ratio : 2.40:1
Frame rate mode : Variable
Frame rate : 0.003 fps
Minimum frame rate : 0.002 fps
Maximum frame rate : 0.007 fps
Color space : YUV
Chroma subsampling : 4:2:0
Bit depth : 8 bits
Compression mode : Lossy
Bits/(Pixel*Frame) : 1.392
Stream size : 579 KiB (0%)
Title : Chapter Images
Language : English
Encoded date : UTC 2018-06-23 10:41:37
Tagged date : UTC 2018-06-23 10:41:37

Audio #1
ID : 2
Format : AAC
Format/Info : Advanced Audio Codec
Format profile : LC
Codec ID : 40
Duration : 1h 40mn
Source duration : 1h 40mn
Bit rate mode : Variable
Bit rate : 157 Kbps
Maximum bit rate : 235 Kbps
Channel(s) : 2 channels
Channel positions : Front: L R
Sampling rate : 48.0 KHz
Compression mode : Lossy
Stream size : 113 MiB (3%)
Source stream size : 113 MiB (3%)
Title : Russian Stereo
Language : Russian
Encoded date : UTC 2018-06-23 10:41:09
Tagged date : UTC 2018-06-23 10:41:15

Audio #2
ID : 3
Format : AC-3
Format/Info : Audio Coding 3
Mode extension : CM (complete main)
Format settings, Endianness : Big
Codec ID : ac-3
Duration : 1h 40mn
Bit rate mode : Constant
Bit rate : 384 Kbps
Channel(s) : 6 channels
Channel positions : Front: L C R, Side: L R, LFE
Sampling rate : 48.0 KHz
Bit depth : 16 bits
Compression mode : Lossy
Stream size : 276 MiB (8%)
Title : Russian DD 5.1
Language : Russian
Encoded date : UTC 2018-06-23 10:41:09
Tagged date : UTC 2018-06-23 10:41:15

Menu #1
00:00:00.000 : 1
00:02:31.151 : 2
00:10:49.065 : 3
00:14:15.396 : 4
00:20:27.476 : 5
00:25:16.306 : 6
00:29:20.717 : 7
00:34:53.800 : 8
00:41:22.104 : 9
00:45:28.934 : 10
00:48:33.535 : 11
00:54:42.695 : 12
00:58:26.418 : 13
01:05:53.656 : 14
01:10:04.114 : 15
01:15:46.956 : 16
01:21:59.244 : 17
01:28:26.214 : 18
01:31:46.998 : 19
01:37:56.742 : 20

Menu #2
ID : 4
Codec ID : text
Duration : 1h 40mn
Language : English
Encoded date : UTC 2018-06-23 10:41:33
Tagged date : UTC 2018-06-23 10:41:33
00:00:00.000 : 1
00:02:31.151 : 2
00:10:49.065 : 3
00:14:15.396 : 4
00:20:27.476 : 5
00:25:16.306 : 6
00:29:20.717 : 7
00:34:53.800 : 8
00:41:22.104 : 9
00:45:28.934 : 10
00:48:33.535 : 11
00:54:42.695 : 12
00:58:26.418 : 13
01:05:53.656 : 14
01:10:04.114 : 15
01:15:46.956 : 16
01:21:59.244 : 17
01:28:26.214 : 18
01:31:46.998 : 19
01:37:56.742 : 20
Bit rate mode : VBR

Релиз подготовлен для просмотра на Apple TV, iPad, iPhone, iPod Touch.
Для просмотра данного релиза на компьютере с ОС Windows рекомендуется использовать VLC media player

Трекер:  [ 23-Июн-2018 14:36 ]

  

Скачать .torrent

Размер .torrent файла 33 KB


Размер: 3.24 GB
Хэш (hash) релиза: 1eaee298ac9a8be85bff6232cda8f7aed6757340

Торренты, похожие на Правда или действие Truth or Dare скачать торрент

Форум Название Автор Размер S L Добавлен
Видео (iPhone/iPod Touch/iPad) ·%· [iPad] Правда или действие / Truth or Dare (Джефф Уодлоу / Jeff Wadlow ) [2018, США, Ужасы, триллер, WEB-DLRip, SD (576p)] [Extended Cut] DUB Galfimbul 17590762181.64 GB 0 0 1529939184

18:06

25-Июн-18

Еще никто не оставлял запись к записи скачать торрент Правда или действие Truth or Dare . Будь первым!

!Обратная связь