Hit Miss | Kenya Sawada | Asa Ga Kita SP

Скачать через торрент Человек-паук Marvels Spider-Man Фильм бесплатно в хорошем качестве torrent

Скачивайте на UnionPeer.org фильмы через торрент без регистрации. Новинки кино в хорошем качестве через торрент. На UnionPeer.org можно скачать через торрент фильмы 2014 и 2015 годов. Самые новые фильмы.

Скачать торрент Человек-паук Marvels Spider-Man бесплатно через .torrent фильм мультфильм сериал

Статистика раздачи
Размер:  489 MB   |    Зарегистрирован:  24 дня   |    .torrent скачан:  22 раза   |   
Раздают:  1  
   
загрузка...
 
Автор Сообщение

Galfimbul

avatar Galfimbul


Человек-паук / Marvel's Spider-Man

Год выпуска: 2018
Страна: США
Жанр: Мультфильм, фантастика, боевик, приключения, семейный
Продолжительность: ~00:22:00

Перевод: Профессиональный (двухголосый закадровый) Gears Media

Режиссёр: Марта Кулидж, Кевин Даулинг, Пьер Морель
В ролях: Робби Дэймонд, Макс Миттелман, Фред Татаскьор, Мелани Миничино, Джошуа Китон, Наджи Джетер, Лора Бэйли, Бен Дискин, Скотт Менвиль, Джон Ди Маджио

Описание: Случайный укус радиоактивного паука на научной выставке даровал нескладному школьнику Питеру Паркеру невероятные паучьи способности. Когда грабитель убил его любимого дядю Бена, Питер решает использовать свои удивительные силы, чтобы защищать людей. Он навсегда запомнил слова своего дяди: «Чем больше сила, тем больше и ответственность!». Он становится Человеком-Пауком, бесстрашным героем в маске.

Ссылка на предыдущие и альтернативные раздачи: ...Marvel%27s%20Spider-Man

Сэмпл: http://multi-up.com/1202208

Качество: WEBRip
Формат: AVI
Видео: XviD, 720x400 at 23.976 fps, ~1300 kbps avg
Аудио1: Russian, MP3, 48 kHz, 2 ch, 128 kbps
Аудио2: English, MP3, 48 kHz, 2 ch, 128 kbps
Субтитры: нет
Реклама: аудио (два раза, в начале и конце, по 12 сек.)
Format : AVI
Format/Info : Audio Video Interleave
File size : 247 MiB
Duration : 22 min 3 s
Overall bit rate : 1 566 kb/s
Writing application : Lavf56.30.100

Video
ID : 0
Format : xvid
Codec ID : xvid
Duration : 22 min 3 s
Bit rate : 1 290 kb/s
Width : 720 pixels
Height : 400 pixels
Display aspect ratio : 16:9
Frame rate : 23.976 (24000/1001) FPS
Scan type : Progressive
Bits/(Pixel*Frame) : 0.187
Stream size : 203 MiB (82%)

Audio #1
ID : 1
Format : MPEG Audio
Format version : Version 1
Format profile : Layer 3
Format settings : Joint stereo / MS Stereo
Codec ID : 55
Codec ID/Hint : MP3
Duration : 22 min 3 s
Bit rate mode : Constant
Bit rate : 128 kb/s
Channel(s) : 2 channels
Sampling rate : 48.0 kHz
Compression mode : Lossy
Stream size : 20.2 MiB (8%)
Alignment : Aligned on interleaves
Interleave, duration : 24 ms (0.58 video frame)
Interleave, preload duratio : 24 ms
Title : Gears Media

Audio #2
ID : 2
Format : MPEG Audio
Format version : Version 1
Format profile : Layer 3
Format settings : Joint stereo / MS Stereo
Codec ID : 55
Codec ID/Hint : MP3
Duration : 22 min 3 s
Bit rate mode : Constant
Bit rate : 128 kb/s
Channel(s) : 2 channels
Sampling rate : 48.0 kHz
Compression mode : Lossy
Stream size : 20.2 MiB (8%)
Alignment : Aligned on interleaves
Interleave, duration : 24 ms (0.58 video frame)
Interleave, preload duratio : 24 ms
<div class="sp-wrap">
<div class="sp-head folded">Внимание! Раздача ведётся путём добавления новых серий</div>
<div class="sp-body">[b]Внимание! Раздача ведётся путём добавления новых серий; при каждом добавлении создаётся новый торрент. Чтобы начать докачку новой серии, пользователям необходимо сделать следующее:
(1) остановить скачивание,
(2) удалить старый торрент у себя из клиента (старые серии удалять не надо),
(3) скачать новый торрент и запустить его у себя в клиенте вместо старого, при этом указать клиенту путь в старую папку куда и должно происходить скачивание новых серий.

Eсли вы уже удалили старые серии, то предотвратить повторную закачку старых серий можно, отжав галочку в соответствующих местах при запуске нового торрента. По возможности, желательно не удалять старые серии как можно дольше чтобы релизёр не столько продолжал раздавать старые серии, а смог сконцентрироваться на новых.</div>
</div>

Трекер:  [ 23-Июн-2018 09:54 ]

  

Скачать .torrent

Размер .torrent файла 19 KB


Размер: 489 MB
Хэш (hash) релиза: 44f6aff316e597eb7fbf1fe03b2a182ad5cb801b
Подписка на обновления:

Еще никто не оставлял запись к записи скачать торрент Человек-паук Marvels Spider-Man . Будь первым!

!Обратная связь