Aristophane - Œuvres Complètes | Deborah Findlay | The Promise

Скачать через торрент Конг: Король обезьян Kong: King of the Apes Фильм бесплатно в хорошем качестве torrent

Скачивайте на UnionPeer.org фильмы через торрент без регистрации. Новинки кино в хорошем качестве через торрент. На UnionPeer.org можно скачать через торрент фильмы 2014 и 2015 годов. Самые новые фильмы.

Скачать торрент Конг: Король обезьян Kong: King of the Apes бесплатно через .torrent фильм мультфильм сериал

Статистика раздачи
Размер:  13.02 GB   |    Зарегистрирован:  24 дня   |    .torrent скачан:  31 раз   |   
Раздают:  1  
   
загрузка...
 
Автор Сообщение

Galfimbul

avatar Galfimbul


Конг: Король обезьян / Kong: King of the Ape

Страна: США, Япония, Канада
Жанр: Мультсериал, фантастика, драма, семейный
Продолжительность серии: 1 x ~ 01:22:00, 12 x ~ 00:22:00
Год выпуска: 2016
Перевод: Профессиональный (дублированный)

Режиссёр: Мото Сакакибара, Дастин МакКензи
Роли озвучивали: Вив Ликок, Ли Токар, Винсент Тонг, Кэтлин Барр, Шеннон Чан-Кент, Алессандро Джулиани, Табита Сен-Жермен, Сэм Винсент, Джиллз Пэнтон, Панта Мосле

Описание: В 2050 году злой ученый собирается выпустить армию роботов-динозавров. Теперь Конгу и его друзьям придётся пережить череду приключений и спасти всё человечество.



Качество: WEB-DL 1080p
Формат: MKV
Видео: MPEG-4 AVC, 1920x1080 [16:9], 23.976 fps, ~ 6600 Kbps
Аудио 1: [Русский] AC3, 48 kHz, 6 ch, 384 Kbps
Аудио 2: [Английский] AC3, 48 kHz, 6 ch, 384 Kbps
Субтитры: Русские (Forced, Full), английские (Full SDH)

1 сезон
2 сезон
Релиз CasStudio - BenderBEST
ОбщееУникальный идентификатор : 269231208349641982472784971881527334467 (0xCA8C0B6BB818AC9850D4C237703B5643)Полное имя : S:\Kong.King.of.the.Apes.S01.1080p.NF.WEB-DL.Rus.Eng_CasStudio\Kong.King.of.the.Apes.S01E01.The.Adventure.Begins.1080p.NF.WEB-DL.Rus.Eng_CasStudio.mkvФормат : MatroskaВерсия формата : Version 4 / Version 2Размер файла : 3,04 ГбайтПродолжительность : 1 ч. 25 м.Режим общего битрейта : ПеременныйОбщий поток : 5084 Кбит/секДата кодирования : UTC 2018-06-18 18:59:38Программа кодирования : mkvmerge v24.0.0 ('Beyond The Pale') 64-bitБиблиотека кодирования : libebml v1.3.6 + libmatroska v1.4.9

ВидеоИдентификатор : 1Формат : AVCФормат/Информация : Advanced Video CodecПрофиль формата : [email protected]Параметр CABAC формата : ДаПараметр ReFrames формата : 3 кадраИдентификатор кодека : V_MPEG4/ISO/AVCПродолжительность : 1 ч. 25 м.Вид битрейта : ПеременныйБитрейт : 4420 Кбит/секМаксимальный битрейт : 6630 Кбит/секШирина : 1920 пикселейВысота : 1080 пикселейСоотношение сторон : 16:9Режим частоты кадров : ПостоянныйЧастота кадров : 23,976 (24000/1001) кадра/секЦветовое пространство : YUVСубдискретизация насыщенности : 4:2:0Битовая глубина : 8 битТип развёртки : ПрогрессивнаяБит/(Пиксели*Кадры) : 0.089Размер потока : 2,58 Гбайт (85%)Библиотека кодирования : x264 core 118Настройки программы : cabac=1 / ref=3 / deblock=1:0:0 / analyse=0x1:0x111 / me=umh / subme=10 / psy=1 / psy_rd=1.00:0.00 / mixed_ref=1 / me_range=24 / chroma_me=1 / trellis=2 / 8x8dct=0 / cqm=0 / deadzone=21,11 / fast_pskip=1 / chroma_qp_offset=-2 / threads=8 / sliced_threads=0 / nr=0 / decimate=1 / interlaced=0 / bluray_compat=0 / constrained_intra=0 / bframes=2 / b_pyramid=0 / b_adapt=2 / b_bias=0 / direct=3 / weightb=1 / open_gop=0 / weightp=2 / keyint=48 / keyint_min=25 / scenecut=0 / intra_refresh=0 / rc_lookahead=0 / rc=2pass / mbtree=1 / bitrate=4420 / ratetol=1.0 / qcomp=0.50 / qpmin=6 / qpmax=51 / qpstep=4 / cplxblur=20.0 / qblur=0.5 / vbv_maxrate=6630 / vbv_bufsize=8840 / nal_hrd=vbr / ip_ratio=1.40 / aq=1:1.00Default : ДаForced : Нет

Аудио #1Идентификатор : 2Формат : AC-3Формат/Информация : Audio Coding 3Расширение режима : CM (complete main)Параметр Endianness формата : BigИдентификатор кодека : A_AC3Продолжительность : 1 ч. 25 м.Вид битрейта : ПостоянныйБитрейт : 384 Кбит/секКаналы : 6 каналовРасположение каналов : Front: L C R, Side: L R, LFEЧастота : 48,0 КГцЧастота кадров : 31,250 кадров/сек (1536 spf)Метод сжатия : С потерямиРазмер потока : 235 Мбайт (8%)Язык : RussianDefault : ДаForced : Нет

Аудио #2Идентификатор : 3Формат : AC-3Формат/Информация : Audio Coding 3Расширение режима : CM (complete main)Параметр Endianness формата : BigИдентификатор кодека : A_AC3Продолжительность : 1 ч. 25 м.Вид битрейта : ПостоянныйБитрейт : 384 Кбит/секКаналы : 6 каналовРасположение каналов : Front: L C R, Side: L R, LFEЧастота : 48,0 КГцЧастота кадров : 31,250 кадров/сек (1536 spf)Метод сжатия : С потерямиРазмер потока : 235 Мбайт (8%)Заголовок : EnglishЯзык : EnglishDefault : НетForced : Нет

Текст #1Идентификатор : 4Формат : UTF-8Идентификатор кодека : S_TEXT/UTF8Идентификатор кодека/Информация : UTF-8 Plain TextПродолжительность : 59 м.Битрейт : 0 бит/секCount of elements : 13Размер потока : 387 байт (0%)Заголовок : ForcedЯзык : RussianDefault : ДаForced : Да

Текст #2Идентификатор : 5Формат : UTF-8Идентификатор кодека : S_TEXT/UTF8Идентификатор кодека/Информация : UTF-8 Plain TextПродолжительность : 1 ч. 21 м.Битрейт : 86 бит/секCount of elements : 1529Размер потока : 52,0 Кбайт (0%)Заголовок : SDHЯзык : EnglishDefault : НетForced : Нет

Текст #3Идентификатор : 6Формат : UTF-8Идентификатор кодека : S_TEXT/UTF8Идентификатор кодека/Информация : UTF-8 Plain TextПродолжительность : 1 ч. 21 м.Битрейт : 138 бит/секCount of elements : 1200Размер потока : 82,9 Кбайт (0%)Язык : ArabicDefault : НетForced : Нет

Текст #4Идентификатор : 7Формат : UTF-8Идентификатор кодека : S_TEXT/UTF8Идентификатор кодека/Информация : UTF-8 Plain TextПродолжительность : 1 ч. 21 м.Битрейт : 135 бит/секCount of elements : 1206Размер потока : 80,9 Кбайт (0%)Язык : BulgarianDefault : НетForced : Нет

Текст #5Идентификатор : 8Формат : UTF-8Идентификатор кодека : S_TEXT/UTF8Идентификатор кодека/Информация : UTF-8 Plain TextПродолжительность : 1 ч. 21 м.Битрейт : 71 бит/секCount of elements : 1172Размер потока : 42,6 Кбайт (0%)Язык : DanishDefault : НетForced : Нет

Текст #6Идентификатор : 9Формат : UTF-8Идентификатор кодека : S_TEXT/UTF8Идентификатор кодека/Информация : UTF-8 Plain TextПродолжительность : 1 ч. 21 м.Битрейт : 73 бит/секCount of elements : 1133Размер потока : 43,9 Кбайт (0%)Язык : GermanDefault : НетForced : Нет

Текст #7Идентификатор : 10Формат : UTF-8Идентификатор кодека : S_TEXT/UTF8Идентификатор кодека/Информация : UTF-8 Plain TextПродолжительность : 1 ч. 21 м.Битрейт : 107 бит/секCount of elements : 1157Размер потока : 64,6 Кбайт (0%)Язык : GreekDefault : НетForced : Нет

Текст #8Идентификатор : 11Формат : UTF-8Идентификатор кодека : S_TEXT/UTF8Идентификатор кодека/Информация : UTF-8 Plain TextПродолжительность : 1 ч. 21 м.Битрейт : 71 бит/секCount of elements : 1173Размер потока : 42,6 Кбайт (0%)Язык : SpanishDefault : НетForced : Нет

Текст #9Идентификатор : 12Формат : UTF-8Идентификатор кодека : S_TEXT/UTF8Идентификатор кодека/Информация : UTF-8 Plain TextПродолжительность : 1 ч. 21 м.Битрейт : 72 бит/секCount of elements : 1192Размер потока : 43,5 Кбайт (0%)Заголовок : EuropeanЯзык : SpanishDefault : НетForced : Нет

Текст #10Идентификатор : 13Формат : UTF-8Идентификатор кодека : S_TEXT/UTF8Идентификатор кодека/Информация : UTF-8 Plain TextПродолжительность : 1 ч. 21 м.Битрейт : 68 бит/секCount of elements : 911Размер потока : 40,8 Кбайт (0%)Язык : FinnishDefault : НетForced : Нет

Текст #11Идентификатор : 14Формат : UTF-8Идентификатор кодека : S_TEXT/UTF8Идентификатор кодека/Информация : UTF-8 Plain TextПродолжительность : 1 ч. 21 м.Битрейт : 68 бит/секCount of elements : 1179Размер потока : 41,2 Кбайт (0%)Язык : FrenchDefault : НетForced : Нет

Текст #12Идентификатор : 15Формат : UTF-8Идентификатор кодека : S_TEXT/UTF8Идентификатор кодека/Информация : UTF-8 Plain TextПродолжительность : 1 ч. 21 м.Битрейт : 114 бит/секCount of elements : 1143Размер потока : 68,4 Кбайт (0%)Язык : HebrewDefault : НетForced : Нет

Текст #13Идентификатор : 16Формат : UTF-8Идентификатор кодека : S_TEXT/UTF8Идентификатор кодека/Информация : UTF-8 Plain TextПродолжительность : 1 ч. 21 м.Битрейт : 153 бит/секCount of elements : 1162Размер потока : 91,7 Кбайт (0%)Язык : HindiDefault : НетForced : Нет

Текст #14Идентификатор : 17Формат : UTF-8Идентификатор кодека : S_TEXT/UTF8Идентификатор кодека/Информация : UTF-8 Plain TextПродолжительность : 1 ч. 21 м.Битрейт : 73 бит/секCount of elements : 1111Размер потока : 44,2 Кбайт (0%)Язык : IndonesianDefault : НетForced : Нет

Текст #15Идентификатор : 18Формат : UTF-8Идентификатор кодека : S_TEXT/UTF8Идентификатор кодека/Информация : UTF-8 Plain TextПродолжительность : 1 ч. 21 м.Битрейт : 82 бит/секCount of elements : 1178Размер потока : 49,6 Кбайт (0%)Язык : ItalianDefault : НетForced : Нет

Текст #16Идентификатор : 19Формат : UTF-8Идентификатор кодека : S_TEXT/UTF8Идентификатор кодека/Информация : UTF-8 Plain TextПродолжительность : 1 ч. 21 м.Битрейт : 59 бит/секCount of elements : 1021Размер потока : 35,4 Кбайт (0%)Язык : JapaneseDefault : НетForced : Нет

Текст #17Идентификатор : 20Формат : UTF-8Идентификатор кодека : S_TEXT/UTF8Идентификатор кодека/Информация : UTF-8 Plain TextПродолжительность : 1 ч. 21 м.Битрейт : 72 бит/секCount of elements : 1204Размер потока : 43,4 Кбайт (0%)Язык : KoreanDefault : НетForced : Нет

Текст #18Идентификатор : 21Формат : UTF-8Идентификатор кодека : S_TEXT/UTF8Идентификатор кодека/Информация : UTF-8 Plain TextПродолжительность : 1 ч. 21 м.Битрейт : 65 бит/секCount of elements : 1133Размер потока : 39,1 Кбайт (0%)Язык : Norwegian BokmalDefault : НетForced : Нет

Текст #19Идентификатор : 22Формат : UTF-8Идентификатор кодека : S_TEXT/UTF8Идентификатор кодека/Информация : UTF-8 Plain TextПродолжительность : 1 ч. 21 м.Битрейт : 63 бит/секCount of elements : 1055Размер потока : 38,2 Кбайт (0%)Язык : DutchDefault : НетForced : Нет

Текст #20Идентификатор : 23Формат : UTF-8Идентификатор кодека : S_TEXT/UTF8Идентификатор кодека/Информация : UTF-8 Plain TextПродолжительность : 1 ч. 21 м.Битрейт : 70 бит/секCount of elements : 986Размер потока : 42,2 Кбайт (0%)Язык : PolishDefault : НетForced : Нет

Текст #21Идентификатор : 24Формат : UTF-8Идентификатор кодека : S_TEXT/UTF8Идентификатор кодека/Информация : UTF-8 Plain TextПродолжительность : 1 ч. 21 м.Битрейт : 79 бит/секCount of elements : 1198Размер потока : 47,6 Кбайт (0%)Язык : PortugueseDefault : НетForced : Нет

Текст #22Идентификатор : 25Формат : UTF-8Идентификатор кодека : S_TEXT/UTF8Идентификатор кодека/Информация : UTF-8 Plain TextПродолжительность : 1 ч. 21 м.Битрейт : 73 бит/секCount of elements : 1199Размер потока : 43,9 Кбайт (0%)Заголовок : BrazilianЯзык : PortugueseDefault : НетForced : Нет

Текст #23Идентификатор : 26Формат : UTF-8Идентификатор кодека : S_TEXT/UTF8Идентификатор кодека/Информация : UTF-8 Plain TextПродолжительность : 1 ч. 21 м.Битрейт : 66 бит/секCount of elements : 1109Размер потока : 40,2 Кбайт (0%)Язык : RomanianDefault : НетForced : Нет

Текст #24Идентификатор : 27Формат : UTF-8Идентификатор кодека : S_TEXT/UTF8Идентификатор кодека/Информация : UTF-8 Plain TextПродолжительность : 1 ч. 21 м.Битрейт : 106 бит/секCount of elements : 1165Размер потока : 63,7 Кбайт (0%)Язык : RussianDefault : НетForced : Нет

Текст #25Идентификатор : 28Формат : UTF-8Идентификатор кодека : S_TEXT/UTF8Идентификатор кодека/Информация : UTF-8 Plain TextПродолжительность : 1 ч. 21 м.Битрейт : 71 бит/секCount of elements : 1140Размер потока : 43,1 Кбайт (0%)Язык : SwedishDefault : НетForced : Нет

Текст #26Идентификатор : 29Формат : UTF-8Идентификатор кодека : S_TEXT/UTF8Идентификатор кодека/Информация : UTF-8 Plain TextПродолжительность : 1 ч. 21 м.Битрейт : 152 бит/секCount of elements : 1168Размер потока : 91,1 Кбайт (0%)Язык : ThaiDefault : НетForced : Нет

Текст #27Идентификатор : 30Формат : UTF-8Идентификатор кодека : S_TEXT/UTF8Идентификатор кодека/Информация : UTF-8 Plain TextПродолжительность : 1 ч. 21 м.Битрейт : 73 бит/секCount of elements : 1023Размер потока : 43,9 Кбайт (0%)Язык : TurkishDefault : НетForced : Нет

Текст #28Идентификатор : 31Формат : UTF-8Идентификатор кодека : S_TEXT/UTF8Идентификатор кодека/Информация : UTF-8 Plain TextПродолжительность : 1 ч. 21 м.Битрейт : 76 бит/секCount of elements : 1168Размер потока : 45,7 Кбайт (0%)Язык : VietnameseDefault : НетForced : Нет

Текст #29Идентификатор : 32Формат : UTF-8Идентификатор кодека : S_TEXT/UTF8Идентификатор кодека/Информация : UTF-8 Plain TextПродолжительность : 1 ч. 21 м.Битрейт : 69 бит/секCount of elements : 1197Размер потока : 41,9 Кбайт (0%)Заголовок : SimplifiedЯзык : ChineseDefault : НетForced : Нет

Текст #30Идентификатор : 33Формат : UTF-8Идентификатор кодека : S_TEXT/UTF8Идентификатор кодека/Информация : UTF-8 Plain TextПродолжительность : 1 ч. 21 м.Битрейт : 72 бит/секCount of elements : 942Размер потока : 43,7 Кбайт (0%)Заголовок : TraditionalЯзык : ChineseDefault : НетForced : Нет


Трекер:  [ 22-Июн-2018 22:24 ]

  

Скачать .torrent

Размер .torrent файла 67 KB


Размер: 13.02 GB
Хэш (hash) релиза: c40026cd85b550eca9d0105d851f4db356ee2947
Подписка на обновления:

Еще никто не оставлял запись к записи скачать торрент Конг: Король обезьян Kong: King of the Apes . Будь первым!

!Обратная связь