Hye-Kyo Song | All in the Timing | Tuba1221

Скачать через торрент Сердца трёх Фильм бесплатно в хорошем качестве torrent

Скачивайте на UnionPeer.org фильмы через торрент без регистрации. Новинки кино в хорошем качестве через торрент. На UnionPeer.org можно скачать через торрент фильмы 2014 и 2015 годов. Самые новые фильмы.

Скачать торрент Сердца трёх бесплатно через .torrent фильм мультфильм сериал

Статистика раздачи
Размер:  4.95 GB   |    Зарегистрирован:  27 дней   |    .torrent скачан:  37 раз   |   
Раздают:  1  
   
загрузка...
 
Автор Сообщение

Galfimbul

avatar Galfimbul


Сердца трёх / Киноверсия

Жанр: Приключения, мелодрама
Год выпуска: 1992
Продолжительность: 01:44:40 + 02:08:57

Режиссёр: Владимир Попков

В ролях: Алёна Хмельницкая, Сергей Жигунов, Владимир Шевельков, Рафаэль Котанджян, Пирет Мянгел, Игорь Кваша, Дмитрий Харатьян, Лиза Доля, Альгимантас Масюлис, Гедиминас Гирдвайнис, Георгий Дворников, Михаил Светин, Владимир Сошальский, Артур Ли, Алексей Колесник, Анатолий Белый, Михаил Шевчук, Владимир Уан-Зо-Ли, Сейдулла Молдаханов, Эрменгельд Коновалов, Юрий Критенко, Вадим Вильский, Виктор Демерташ, Сергей Пономаренко, Юрий Рудченко, Лев Окрент, Давид Бабаев, Людмила Лобза, Ирина Мельник, Борис Небиеридзе, Александр Итыгилов мл., Константин Шафоренко, Мария Капнист, Александр Гаврилов

Описание: Молодой миллионер Фрэнсис Морган вместе со своим обанкротившимся дальним родственником Генри Морганом отправляется на поиски старинного клада, спрятанного их далеким предком-пиратом. Но путешествие становится еще интересней, когда к ним решает присоединиться прелестная Леонсия, к чарам которой не равнодушны оба молодых человека...

Доп. информация: Данная раздача - это не мини-сериал из 5 серий, это киновариант продолжительностью 03:53:38

Сэмпл: http://sendfile.su/1426273

Качество видео: DVB
Формат видео: TS

Видео: AVC, 720х576, 25 fps, 2688 kbps, 16:9
Аудио: MP2, 2ch, 48 KHz, 192 Kbps
General
ID : 1 (0x1)
Complete name : Сердца трёх (1 серия).ts
Format : MPEG-TS
File size : 2.22 GiB
Duration : 1h 44mn
Overall bit rate mode : Variable
Overall bit rate : 3 032 Kbps

Video
ID : 1101 (0x44D)
Menu ID : 1100 (0x44C)
Format : AVC
Format/Info : Advanced Video Codec
Format profile : [email protected]
Format settings, CABAC : Yes
Format settings, ReFrames : 3 frames
Format settings, GOP : M=4, N=28
Codec ID : 27
Duration : 1h 44mn
Bit rate : 2 688 Kbps
Width : 720 pixels
Height : 576 pixels
Display aspect ratio : 16:9
Frame rate : 25.000 fps
Standard : Component
Color space : YUV
Chroma subsampling : 4:2:0
Bit depth : 8 bits
Scan type : Interlaced
Scan order : Top Field First
Bits/(Pixel*Frame) : 0.259
Stream size : 1.97 GiB (89%)
Color primaries : BT.601 PAL
Transfer characteristics : BT.470 System B, BT.470 System G
Matrix coefficients : BT.601

Audio
ID : 1102 (0x44E)
Menu ID : 1100 (0x44C)
Format : MPEG Audio
Format version : Version 1
Format profile : Layer 2
Codec ID : 3
Duration : 1h 44mn
Bit rate mode : Constant
Bit rate : 192 Kbps
Channel(s) : 2 channels
Sampling rate : 48.0 KHz
Compression mode : Lossy
Stream size : 144 MiB (6%)
Language : English

Text
ID : 1103 (0x44F)-100
Menu ID : 1100 (0x44C)
Format : Teletext
Language : Russian

ID : 1100 (0x44C)
Menu ID : 1100 (0x44C)
Duration : 1h 44mn
List : 1101 (0x44D) (AVC) / 1102 (0x44E) (MPEG Audio, English) / 1103 (0x44F) ()
Language : / English

General
ID : 1 (0x1)
Complete name : Сердца трёх (2 серия).ts
Format : MPEG-TS
File size : 2.73 GiB
Duration : 2h 8mn
Overall bit rate mode : Variable
Overall bit rate : 3 032 Kbps

Video
ID : 1101 (0x44D)
Menu ID : 1100 (0x44C)
Format : AVC
Format/Info : Advanced Video Codec
Format profile : [email protected]
Format settings, CABAC : Yes
Format settings, ReFrames : 3 frames
Format settings, GOP : M=4, N=28
Codec ID : 27
Duration : 2h 8mn
Bit rate : 2 689 Kbps
Width : 720 pixels
Height : 576 pixels
Display aspect ratio : 16:9
Frame rate : 25.000 fps
Standard : Component
Color space : YUV
Chroma subsampling : 4:2:0
Bit depth : 8 bits
Scan type : Interlaced
Scan order : Top Field First
Bits/(Pixel*Frame) : 0.259
Stream size : 2.42 GiB (89%)
Color primaries : BT.601 PAL
Transfer characteristics : BT.470 System B, BT.470 System G
Matrix coefficients : BT.601

Audio
ID : 1102 (0x44E)
Menu ID : 1100 (0x44C)
Format : MPEG Audio
Format version : Version 1
Format profile : Layer 2
Codec ID : 3
Duration : 2h 8mn
Bit rate mode : Constant
Bit rate : 192 Kbps
Channel(s) : 2 channels
Sampling rate : 48.0 KHz
Compression mode : Lossy
Stream size : 177 MiB (6%)
Language : English

Text
ID : 1103 (0x44F)-100
Menu ID : 1100 (0x44C)
Format : Teletext
Language : Russian

Menu
ID : 1100 (0x44C)
Menu ID : 1100 (0x44C)
Duration : 2h 8mn
List : 1101 (0x44D) (AVC) / 1102 (0x44E) (MPEG Audio, English) / 1103 (0x44F) ()
Language : / English


Трекер:  [ 22-Июн-2018 05:54 ]

  

Скачать .torrent

Размер .torrent файла 13 KB


Размер: 4.95 GB
Хэш (hash) релиза: 2aaf6cf0e6ad88c1dd1882cf1f9ca5b59b6ad2ee
Подписка на обновления:

Торренты, похожие на Сердца трёх скачать торрент

Форум Название Автор Размер S L Добавлен
Зарубежные фильмы до 2016 ·· Три сердца / Любовь на троих / Любовь втроем / Сердца трёх / Three Of Hearts (Юрек Богаевич / Yurek Bogayevicz) [1993, США, мелодрама, комедия, DVDRip] 3xAVO (Горчаков, Михалев, Володарский) L 15552532481.45 GB 0 0 1362865213

00:40

10-Мар-13

Российские сериалы ·· Сердца трех / серии: 1-5 из 5 (Владимир Попков) [1992, Владимир Попков, DVD5] 3 * DVD5 Galfimbul 1164326605810.84 GB 0 0 1496773329

21:22

6-Июн-17

Российские фильмы до 2016 ·· Сердца трёх (Владимир Попков) [1992, приключения, мелодрама, SATRip] киноверсия Galfimbul 15557462021.45 GB 0 0 1454260051

20:07

31-Янв-16

Зарубежные фильмы до 2016 ·· Любовь втроем (Сердца трёх) / Three of Hearts (Юрек Богаевич /Yurek Bogayevicz) [1993 г., Комедия, Любовный роман, DVDRip] Galfimbul 690151728658 MB 0 0 1365270928

20:55

6-Апр-13

Документальные фильмы и телепередачи ·· Тайны советского кино. Сердца трёх (Максим Володин) [2013, документальный, SATRip] damien1990 334857500319 MB 0 0 1364236876

21:41

25-Мар-13

Российские сериалы ·· Сердца трех / 5 серий из 5 (Владимир Попков) [1992, Россия, Украина, приключения, DVDRip] L 46866104324.36 GB 0 0 1330433280

15:48

28-Фев-12

Еще никто не оставлял запись к записи скачать торрент Сердца трёх . Будь первым!

!Обратная связь