Romi Rain (25 роликов) [2014-2018, A2M, All Sex, Anal, Big Tits, GangBang, Interracial, Lesbians, Solo, Squirt, Toys] (Часть 2) | Homes Under The Hammer S21E20 HDTV x264-NORiTE [eztv] | Raza Jaffrey

Скачать через торрент Токийский гуль Фильм бесплатно в хорошем качестве torrent

Скачивайте на UnionPeer.org фильмы через торрент без регистрации. Новинки кино в хорошем качестве через торрент. На UnionPeer.org можно скачать через торрент фильмы 2014 и 2015 годов. Самые новые фильмы.

Скачать торрент Токийский гуль бесплатно через .torrent фильм мультфильм сериал

Статистика раздачи
Размер:  1.32 GB   |    Зарегистрирован:  25 дней   |    .torrent скачан:  25 раз   |   
Раздают:  1  
   
загрузка...
 
Автор Сообщение

Galfimbul

avatar Galfimbul


Токийский гуль (ТВ-3)
Оригинальное название: Tokyo Ghoul:Re
Период трансляции: c 03.04.2018 по 19.06.2018
Страна: Япония
Жанр: приключения, мистика, драма, ужасы
Продолжительность: 12 эп. по ~24 мин.
Режиссер: Ватанабэ Одахиро
Студия:
Перевод: Субтитры
Переводчик/Перевод песен: Anku
Редактор/Тайм-код/Оформление: mutagenb
Описание: Загадочные существа, пожирающие людей, продолжают тайно разгуливать по улицам Токио и наводить ужас на мирных жителей. Однако единственная организация, способная им помешать, CCG, ни на миг не ослабляла своей бдительности. На этот раз в её руках оказалось новое оружие - отряд «Куинксов» (четырёх проблемных подростков с вживлёнными клетками гулей) под предводительством следователя Сасаки Хайсэ. Что ждёт их на этой нелёгкой службе?
1. Start: Those Who Hunt
2. Member: Fragments
3. Fresh: Eve
4. Main: Auction
5. Press: Night of Scattering
6. Turn: In the End
7. Mind: Days of Recollections
8. Take: The One That Wriggles
9. Ghost
10. Think: Wavering
11. Write: Failure
12. Beautiful Dream: Dawn

Качество видео: HDTVRip
Формат: MP4
Видео кодек: H.264
Аудио кодек: AAC
Видео: MPEG4 Video (H264) 480x272 23.976fps 511kbps
Аудио: AAC 48000Hz stereo 128kbps
Format : MPEG-4
Format profile : Base Media
Codec ID : isom (isom/avc1)
File size : 113 MiB
Duration : 24 min
Overall bit rate mode : Variable
Overall bit rate : 644 kb/s
Encoded date : UTC 2018-05-30 21:51:36
Tagged date : UTC 2018-05-30 21:51:36

Video
ID : 1
Format : AVC
Format/Info : Advanced Video Codec
Format profile : [email protected]
Format settings, CABAC : Yes
Format settings, ReFrames : 2 frames
Codec ID : avc1
Codec ID/Info : Advanced Video Coding
Duration : 24 min
Bit rate : 512 kb/s
Maximum bit rate : 2 370 kb/s
Width : 480 pixels
Height : 272 pixels
Display aspect ratio : 16:9
Frame rate mode : Constant
Frame rate : 23.976 (24000/1001) FPS
Color space : YUV
Chroma subsampling : 4:2:0
Bit depth : 8 bits
Scan type : Progressive
Bits/(Pixel*Frame) : 0.164
Stream size : 89.7 MiB (80%)
Writing library : x264 core 65 r999kMod cc51047
Encoding settings : cabac=1 / ref=2 / deblock=1:-2:-1 / analyse=0x1:0x131 / me=umh / subme=7 / psy_rd=1.0:0.0 / mixed_ref=1 / me_range=16 / chroma_me=1 / trellis=2 / 8x8dct=0 / cqm=0 / deadzone=21,11 / chroma_qp_offset=-2 / threads=2 / thread_queue=2 / nr=0 / decimate=0 / mbaff=0 / bframes=3 / b_pyramid=0 / b_adapt=1 / b_bias=0 / direct=3 / wpredb=1 / keyint=250 / keyint_min=25 / scenecut=40(pre) / rc=2pass / bitrate=512 / ratetol=1.0 / qcomp=0.60 / qpmin=10 / qpmax=51 / qpstep=4 / cplxblur=20.0 / qblur=0.5 / ip_ratio=1.40 / pb_ratio=1.30 / aq=1:1.00
Encoded date : UTC 2018-05-30 21:51:36
Tagged date : UTC 2018-05-30 21:51:48

Audio
ID : 2
Format : AAC
Format/Info : Advanced Audio Codec
Format profile : LC
Codec ID : 40
Duration : 24 min
Bit rate mode : Variable
Bit rate : 129 kb/s
Maximum bit rate : 149 kb/s
Channel(s) : 2 channels
Channel positions : Front: L R
Sampling rate : 48.0 kHz
Frame rate : 46.875 FPS (1024 spf)
Compression mode : Lossy
Stream size : 22.5 MiB (20%)
Encoded date : UTC 2018-05-30 21:51:46
Tagged date : UTC 2018-05-30 21:51:48
Серия состоит из:
1. Токийский гуль [ТВ-1] - ТВ (12 эп.), адаптация манги, 2014
2. Токийский гуль [ТВ-2] - ТВ (12 эп.), продолжение, 2015
3. Токийский гуль OVA - OVA (2 эп.), spinoff (ответвление сюжета), 2015
4. Токийский гуль [ТВ-3] - ТВ (12 эп.), продолжение, 2018

Трекер:  [ 21-Июн-2018 19:06 ]

  

Скачать .torrent

Размер .torrent файла 15 KB


Размер: 1.32 GB
Хэш (hash) релиза: 6585a2f4af147c13c86d65f0d58e2cf869e0b151
Подписка на обновления:

Торренты, похожие на Токийский гуль скачать торрент

Форум Название Автор Размер S L Добавлен
Азиатские фильмы ·· Токийский гуль / Tokyo guru (Кэнтаро Хагивара / Kentaro Hagiwara) [2017, Япония, ужасы, боевик, триллер, драма, HDRip] Original + Sub Rus Galfimbul 15688118571.46 GB 0 0 1514266248

08:30

26-Дек-17

PSP | Аниме ·· Токийский гуль OVA / OVA Tokyo Ghoul [Симада Сойти][OVA][1 из 2][2015 г., приключения, HDRip][Субтитры] Galfimbul 147123423140 MB 0 0 1450618419

16:33

20-Дек-15

PSP | Аниме ·· Токийский Гуль √A / Tokyo Ghoul √A [Морита Сюхэй][TV][12 из 12][2015 г., мистика, драма, ужасы, HDTVRip] MVO [JAM, NikaLenina] Galfimbul 1045472432997 MB 0 0 1430017403

06:03

26-Апр-15

PSP | Аниме ·· [ONG] Токийский гуль ТВ-2 / Tokyo Ghoul A [Морита Сюхэй][TV][03 из 12][2015 г., приключения, мистика, ужасы, HDTVRip][Субтитры] Galfimbul 360161076343 MB 0 0 1422169373

10:02

25-Янв-15

PSP | Аниме ·· [ONG] Токийский Гуль A / Tokyo Ghoul A [Морита Сюхэй] [TV] [02 из 12] [2015 г., приключения, мистика, ужасы, HDTVRip] MVO [KANSAI] Galfimbul 194389960185 MB 0 0 1421602458

20:34

18-Янв-15

PSP | Аниме ·· [ONG] Токийский Гуль A / Tokyo Ghoul A [Морита Сюхэй] [TV] [01 из 12] [2015 г., экшен, мистика, драма, ужасы, HDTVRip] MVO [KANSAI] Galfimbul 9762908293 MB 0 0 1420997547

20:32

11-Янв-15

PSP | Аниме ·· Токийский гуль / Tokyo Ghoul [Морита Сюхэй][TV][12 из 12][2014 г., экшен, мистика, драма, ужасы, HDTVRip][JAM & Oriko] Galfimbul 14446497091.35 GB 0 0 1419121950

03:32

21-Дек-14

Еще никто не оставлял запись к записи скачать торрент Токийский гуль . Будь первым!

!Обратная связь