Angel Bismark Curiel | Watch Movie | Canon in D Major: I. Canon

Скачать через торрент [VIDEO] Отпетые напарники По следу бесплатно русская версия torrent активатор

Статистика раздачи
Размер:  1.6 GB   |    Зарегистрирован:  1 месяц   |    .torrent скачан:  20 раз   |   
Раздают:  1  
   
загрузка...
 
Автор Сообщение

Galfimbul

avatar Galfimbul


Отпетые напарники / По следу / Skiptrace / Jue di tao wang


Год выпуска: 2016
Страна: Китай, Гонконг, США
Жанр: боевик, комедия, приключения
Продолжительность: 01:47:41
Перевод №1: русский Профессиональный (полное дублирование) iTunes
Перевод №2: украинский Профессиональный (многоголосый, закадровый)
Оригинальная дорожка: Есть (мультиязыковая: английский, китайский)
Субтитры: английские (Forced), (SDH)
Режиссер: Ренни Харлин / Renny Harlin
В ролях: Джеки Чан, Джонни Ноксвилл, Бинбин Фань, Эрик Цан, Ив Торрес, Уинстон Чао, Ланьсинь Чжан, Майкл Вонг, Джоэль Адриан, Пьер Бурдо и другие .
Описание: Чтобы обезвредить преступный синдикат и спасти свою племянницу, самый честный коп должен взять в напарники красавчика-афериста. Они полные противоположности, но у них одна опасная миссия. Они в бегах, но им не избежать друг друга .
Релиз группы

Качество: BDRip / рип с BDRemux 1080p (Кинозал)
Формат: MP4
Видео кодек: H.264
Аудио кодек: AAC
Видео: 960x400 AR:2.40 1740 kbps 23.976 fps
Аудио №1: [Russian] 2ch 48 kHz 128 kbps - [Dub] Профессиональный (полное дублирование) iTunes
Аудио №2: [Ukrainian] 2ch 48 kHz 128 kbps - [MVO] Профессиональный (многоголосый, закадровый)
Аудио №3: [English] 2ch 48 kHz 128 kbps - Original
avs [info]: 960x400p 1:1 @ 24000/1001 fps (cfr)
x264 [info]: using SAR=1/1
x264 [info]: using cpu capabilities: MMX2 SSE2Fast SSSE3 SSE4.2 AVX FMA3 BMI2 AVX2
x264 [info]: profile High, level 4.1

x264 [info]: frame I:2131 Avg QP:16.98 size: 60188
x264 [info]: frame P:42672 Avg QP:20.54 size: 16741
x264 [info]: frame B:110128 Avg QP:22.15 size: 5099
x264 [info]: consecutive B-frames: 6.0% 5.6% 15.9% 28.0% 17.5% 21.9% 3.2% 1.9%
x264 [info]: mb I I16..4: 4.9% 71.0% 24.0%
x264 [info]: mb P I16..4: 1.7% 12.4% 2.5% P16..4: 37.4% 25.4% 13.7% 0.0% 0.0% skip: 6.9%
x264 [info]: mb B I16..4: 0.2% 1.1% 0.3% B16..8: 37.9% 11.4% 3.5% direct: 4.7% skip:40.8% L0:41.8% L1:43.1% BI:15.1%
x264 [info]: 8x8 transform intra:73.4% inter:61.8%
x264 [info]: direct mvs spatial:96.6% temporal:3.4%
x264 [info]: coded y,uvDC,uvAC intra: 80.9% 82.4% 58.5% inter: 21.4% 20.8% 10.4%
x264 [info]: i16 v,h,dc,p: 29% 17% 7% 48%
x264 [info]: i8 v,h,dc,ddl,ddr,vr,hd,vl,hu: 11% 11% 8% 8% 12% 12% 13% 11% 13%
x264 [info]: i4 v,h,dc,ddl,ddr,vr,hd,vl,hu: 11% 9% 4% 9% 15% 14% 14% 11% 13%
x264 [info]: i8c dc,h,v,p: 42% 23% 19% 17%
x264 [info]: Weighted P-Frames: Y:9.5% UV:6.0%
x264 [info]: ref P L0: 55.9% 14.1% 13.9% 5.3% 4.1% 3.2% 3.0% 0.3% 0.0%
x264 [info]: ref B L0: 78.9% 10.5% 5.4% 2.8% 1.6% 0.7%
x264 [info]: ref B L1: 95.3% 4.7%
x264 [info]: kb/s:1738.46

encoded 154931 frames, 23.64 fps, 1738.46 kb/s
ОбщееПолное имя : K:\Torrents\Skiptrace.2016.BDRip.x264.960x.rip by Frost O.S.mp4Формат : MPEG-4Профиль формата : 3GPP Release 6 GeneralИдентификатор кодека : 3gg6 (isom/3gg6/mp42)Размер файла : 1,60 ГбайтПродолжительность : 1 ч. 47 м.Режим общего битрейта : ПеременныйОбщий поток : 2130 Кбит/секДата кодирования : UTC 2018-06-20 13:27:07Дата пометки : UTC 2018-06-20 13:27:07Программа кодирования : Yamb 2.1.0.0

ВидеоИдентификатор : 1Формат : AVCФормат/Информация : Advanced Video CodecПрофиль формата : [email protected]Настройки формата : CABAC / 7 Ref FramesПараметр CABAC формата : ДаПараметр RefFrames формата : 7 кадровИдентификатор кодека : avc1Идентификатор кодека/Информация : Advanced Video CodingПродолжительность : 1 ч. 47 м.Битрейт : 1740 Кбит/секМаксимальный битрейт : 7110 Кбит/секШирина : 960 пикселейВысота : 400 пикселейСоотношение сторон : 2,40:1Режим частоты кадров : ПостоянныйЧастота кадров : 23,976 (24000/1001) кадра/секЦветовое пространство : YUVСубдискретизация насыщенности : 4:2:0Битовая глубина : 8 битТип развёртки : ПрогрессивнаяБит/(Пиксели*Кадры) : 0.189Размер потока : 1,31 Гбайт (82%)Библиотека кодирования : x264 core 152 r2851 ba24899Настройки программы : cabac=1 / ref=7 / deblock=1:-2:-1 / analyse=0x3:0x113 / me=umh / subme=10 / psy=1 / psy_rd=1.00:0.00 / mixed_ref=1 / me_range=32 / chroma_me=1 / trellis=2 / 8x8dct=1 / cqm=0 / deadzone=21,11 / fast_pskip=0 / chroma_qp_offset=-2 / threads=6 / lookahead_threads=1 / sliced_threads=0 / nr=0 / decimate=0 / interlaced=0 / bluray_compat=0 / constrained_intra=0 / bframes=7 / b_pyramid=2 / b_adapt=2 / b_bias=0 / direct=3 / weightb=1 / open_gop=0 / weightp=2 / keyint=250 / keyint_min=23 / scenecut=40 / intra_refresh=0 / rc=2pass / mbtree=0 / bitrate=1740 / ratetol=1.0 / qcomp=0.70 / qpmin=0 / qpmax=69 / qpstep=4 / cplxblur=20.0 / qblur=0.5 / ip_ratio=1.40 / pb_ratio=1.30 / aq=3:0.90Дата кодирования : UTC 2018-06-19 17:57:06Дата пометки : UTC 2018-06-20 13:27:25Цветовой диапазон : LimitedОсновные цвета : BT.709Характеристики трансфера : BT.709Коэффициенты матрицы : BT.709

Аудио #1Идентификатор : 2Формат : AACФормат/Информация : Advanced Audio CodecПрофиль формата : LCИдентификатор кодека : mp4a-40-2Продолжительность : 1 ч. 47 м.Вид битрейта : ПеременныйБитрейт : 128 Кбит/секМаксимальный битрейт : 138 Кбит/секКаналы : 2 каналаРасположение каналов : Front: L RЧастота : 48,0 КГцЧастота кадров : 46,875 кадров/сек (1024 SPF)Метод сжатия : С потерямиРазмер потока : 98,5 Мбайт (6%)Заголовок : Russian / Dub, iTunesДата кодирования : UTC 2018-06-20 13:13:03Дата пометки : UTC 2018-06-20 13:27:25

Аудио #2Идентификатор : 3Формат : AACФормат/Информация : Advanced Audio CodecПрофиль формата : LCИдентификатор кодека : mp4a-40-2Продолжительность : 1 ч. 47 м.Вид битрейта : ПеременныйБитрейт : 128 Кбит/секМаксимальный битрейт : 137 Кбит/секКаналы : 2 каналаРасположение каналов : Front: L RЧастота : 48,0 КГцЧастота кадров : 46,875 кадров/сек (1024 SPF)Метод сжатия : С потерямиРазмер потока : 98,5 Мбайт (6%)Заголовок : Ukrainian / MVOДата кодирования : UTC 2018-06-20 13:10:12Дата пометки : UTC 2018-06-20 13:27:25

Аудио #3Идентификатор : 4Формат : AACФормат/Информация : Advanced Audio CodecПрофиль формата : LCИдентификатор кодека : mp4a-40-2Продолжительность : 1 ч. 47 м.Вид битрейта : ПеременныйБитрейт : 128 Кбит/секМаксимальный битрейт : 134 Кбит/секКаналы : 2 каналаРасположение каналов : Front: L RЧастота : 48,0 КГцЧастота кадров : 46,875 кадров/сек (1024 SPF)Метод сжатия : С потерямиРазмер потока : 98,6 Мбайт (6%)Заголовок : English / OriginalДата кодирования : UTC 2018-06-20 13:16:34Дата пометки : UTC 2018-06-20 13:27:25

Текст #1Идентификатор : 5Формат : Timed TextИдентификатор кодека : tx3gПродолжительность : 1 ч. 46 м.Вид битрейта : ПеременныйБитрейт : 43 бит/секРазмер потока : 33,4 Кбайт (0%)Заголовок : English / FullForced : НетДата кодирования : UTC 2018-06-20 13:27:25Дата пометки : UTC 2018-06-20 13:27:25

Текст #2Идентификатор : 6Формат : Timed TextИдентификатор кодека : tx3gПродолжительность : 1 ч. 47 м.Вид битрейта : ПеременныйБитрейт : 57 бит/секРазмер потока : 45,0 Кбайт (0%)Заголовок : English / SDHForced : НетДата кодирования : UTC 2018-06-20 13:27:25Дата пометки : UTC 2018-06-20 13:27:25


Трекер:  [ 20-Июн-2018 17:36 ]

  

Скачать .torrent

Размер .torrent файла 16 KB


Размер: 1.6 GB
Хэш (hash) релиза: 42b01f441f9a119a944eb147614ecada70999ea4

Еще никто не оставлял запись к записи скачать торрент [VIDEO] Отпетые напарники По следу . Будь первым!

!Обратная связь