A Very English Scandal Part 1 | Küss ihn, nicht mich! | Still the King

Скачать через торрент [VIDEO] Звездные войны: Последние джедаи Star Wars: Episode VIII - The Last Jedi бесплатно русская версия torrent активатор

Статистика раздачи
Размер:  3.73 GB   |    Зарегистрирован:  1 месяц 4 дня   |    .torrent скачан:  24 раза   |   
Раздают:  2  
   
загрузка...
 
Автор Сообщение

Galfimbul

avatar Galfimbul


Звездные войны: Последние джедаи / Star Wars: Episode VIII - The Last Jedi
[Локализированный видеоряд]

Год выпуска: 2017
Страна: США
Жанр: фантастика, фэнтези, боевик, приключения
Продолжительность: 02:31:51
Перевод №1: русский Профессиональный (полное дублирование) Blu-ray EUR
Перевод №2: украинский Профессиональный (полное дублирование) LeDoyen
Перевод №3: русский Авторский (одноголосый, закадровый) Живов
Оригинальная дорожка: Есть
Субтитры: русские (Forced), (Full), английские (Full)
Режиссер: Райан Джонсон / Rian Johnson
В ролях: Джон Бойега, Дэйзи Ридли, Оскар Айзек, Адам Драйвер, Донал Глисон, Марк Хэмилл, Макс фон Сюдов, Энди Серкис и другие .
Описание: Новая история о противостоянии света и тьмы, добра и зла начинается после гибели Хана Соло. В Галактике, где Первый Орден и Сопротивление яростно сражаются друг с другом в войне, героиня Рей пробудила в себе Силу. Но что произойдет, когда она встретится с единственным оставшимся в живых рыцарем-джедаем — Люком Скайуокером?
Кайло Рен перешел на Темную сторону Силы и убил собственного отца, заняв высокую позицию в Первом Ордене. Но куда приведут его неуемные амбиции, подаренные по наследству грозным дедом Дартом Вейдером? Ситуация обострится еще больше, когда мать Кайло, лидер Сопротивления Лея, вместе с По, Финном и BB-8 приступит к новой миссии .

Релиз группы

Качество: BDRip / рип с Blu-ray disc 1080p [EUR] [2-Disc Edition]
Формат: MP4
Видео кодек: H.264
Аудио кодек: AAC
Видео: 1280x536 AR:2.39 3000 kbps 23.976 fps
Аудио №1: [Russian] 2ch 48 kHz 128 kbps - [Dub] Профессиональный (полное дублирование) Blu-ray EUR
Аудио №2: [Ukrainian] 2ch 48 kHz 128 kbps - [Dub] Профессиональный (полное дублирование) LeDoyen
Аудио №3: [Russian] 2ch 48 kHz 128 kbps - [VO] Авторский (одноголосый, закадровый) Живов
Аудио №4: [English] 2ch 48 kHz 128 kbps - Original
avs [info]: 1280x536p 1:1 @ 24000/1001 fps (cfr)
x264 [info]: using SAR=1/1
x264 [info]: using cpu capabilities: MMX2 SSE2Fast SSSE3 SSE4.2 AVX FMA3 BMI2 AVX2
x264 [info]: profile High, level 4.1

x264 [info]: frame I:2109 Avg QP:14.61 size: 94927
x264 [info]: frame P:51673 Avg QP:18.22 size: 29765
x264 [info]: frame B:164678 Avg QP:20.28 size: 10190
x264 [info]: consecutive B-frames: 3.9% 3.7% 12.7% 15.2% 15.5% 37.1% 6.6% 2.5% 2.8%
x264 [info]: mb I I16..4: 3.8% 80.0% 16.2%
x264 [info]: mb P I16..4: 0.9% 10.2% 1.3% P16..4: 34.8% 38.5% 11.1% 0.0% 0.0% skip: 3.2%
x264 [info]: mb B I16..4: 0.1% 1.0% 0.1% B16..8: 37.0% 19.5% 3.0% direct: 4.6% skip:34.8% L0:47.1% L1:43.8% BI: 9.1%
x264 [info]: 8x8 transform intra:82.1% inter:58.8%
x264 [info]: direct mvs spatial:97.8% temporal:2.2%
x264 [info]: coded y,uvDC,uvAC intra: 89.2% 84.7% 61.6% inter: 23.9% 18.7% 7.7%
x264 [info]: i16 v,h,dc,p: 14% 15% 5% 65%
x264 [info]: i8 v,h,dc,ddl,ddr,vr,hd,vl,hu: 9% 7% 6% 10% 14% 13% 14% 12% 14%
x264 [info]: i4 v,h,dc,ddl,ddr,vr,hd,vl,hu: 11% 8% 4% 9% 15% 13% 15% 11% 14%
x264 [info]: i8c dc,h,v,p: 39% 24% 17% 20%
x264 [info]: Weighted P-Frames: Y:16.5% UV:12.0%
x264 [info]: ref P L0: 46.6% 7.6% 18.6% 7.4% 6.1% 4.3% 4.1% 2.3% 2.4% 0.6% 0.1%
x264 [info]: ref B L0: 67.3% 14.4% 7.2% 4.0% 2.8% 2.3% 1.7% 0.5%
x264 [info]: ref B L1: 93.6% 6.4%
x264 [info]: kb/s:2999.53

encoded 218460 frames, 9.48 fps, 2999.53 kb/s
ОбщееПолное имя : K:\Torrents\Star Wars Episode VIII - The Last Jedi.(Lokalizovannuy videoryad).2017.BDRip.x264.1280x.rip by Frost O.S.mp4Формат : MPEG-4Профиль формата : 3GPP Release 6 GeneralИдентификатор кодека : 3gg6 (isom/3gg6/mp42)Размер файла : 3,73 ГбайтПродолжительность : 2 ч. 31 м.Режим общего битрейта : ПеременныйОбщий поток : 3521 Кбит/секДата кодирования : UTC 2018-06-18 16:18:40Дата пометки : UTC 2018-06-18 16:18:40Программа кодирования : Yamb 2.1.0.0

ВидеоИдентификатор : 1Формат : AVCФормат/Информация : Advanced Video CodecПрофиль формата : [email protected]Настройки формата : CABAC / 9 Ref FramesПараметр CABAC формата : ДаПараметр RefFrames формата : 9 кадровИдентификатор кодека : avc1Идентификатор кодека/Информация : Advanced Video CodingПродолжительность : 2 ч. 31 м.Битрейт : 3000 Кбит/секМаксимальный битрейт : 9819 Кбит/секШирина : 1280 пикселейВысота : 536 пикселейСоотношение сторон : 2,40:1Режим частоты кадров : ПостоянныйЧастота кадров : 23,976 (24000/1001) кадра/секЦветовое пространство : YUVСубдискретизация насыщенности : 4:2:0Битовая глубина : 8 битТип развёртки : ПрогрессивнаяБит/(Пиксели*Кадры) : 0.182Размер потока : 3,18 Гбайт (85%)Библиотека кодирования : x264 core 152 r2851 ba24899Настройки программы : cabac=1 / ref=9 / deblock=1:-2:-2 / analyse=0x3:0x113 / me=umh / subme=11 / psy=1 / psy_rd=0.90:0.00 / mixed_ref=1 / me_range=32 / chroma_me=1 / trellis=2 / 8x8dct=1 / cqm=0 / deadzone=21,11 / fast_pskip=0 / chroma_qp_offset=-2 / threads=6 / lookahead_threads=1 / sliced_threads=0 / nr=0 / decimate=0 / interlaced=0 / bluray_compat=0 / constrained_intra=0 / bframes=8 / b_pyramid=2 / b_adapt=2 / b_bias=0 / direct=3 / weightb=1 / open_gop=0 / weightp=2 / keyint=250 / keyint_min=23 / scenecut=40 / intra_refresh=0 / rc=2pass / mbtree=0 / bitrate=3000 / ratetol=1.0 / qcomp=0.70 / qpmin=0 / qpmax=69 / qpstep=4 / cplxblur=20.0 / qblur=0.5 / ip_ratio=1.40 / pb_ratio=1.30 / aq=3:0.80Дата кодирования : UTC 2018-06-04 14:22:55Дата пометки : UTC 2018-06-18 16:19:37Цветовой диапазон : LimitedОсновные цвета : BT.709Характеристики трансфера : BT.709Коэффициенты матрицы : BT.709

Аудио #1Идентификатор : 2Формат : AACФормат/Информация : Advanced Audio CodecПрофиль формата : LCИдентификатор кодека : mp4a-40-2Продолжительность : 2 ч. 31 м.Вид битрейта : ПеременныйБитрейт : 128 Кбит/секМаксимальный битрейт : 137 Кбит/секКаналы : 2 каналаРасположение каналов : Front: L RЧастота : 48,0 КГцЧастота кадров : 46,875 кадров/сек (1024 SPF)Метод сжатия : С потерямиРазмер потока : 139 Мбайт (4%)Заголовок : Russian / Dub, Blu-ray EURДата кодирования : UTC 2018-06-06 17:33:23Дата пометки : UTC 2018-06-18 16:19:37

Аудио #2Идентификатор : 3Формат : AACФормат/Информация : Advanced Audio CodecПрофиль формата : LCИдентификатор кодека : mp4a-40-2Продолжительность : 2 ч. 31 м.Вид битрейта : ПеременныйБитрейт : 128 Кбит/секМаксимальный битрейт : 138 Кбит/секКаналы : 2 каналаРасположение каналов : Front: L RЧастота : 48,0 КГцЧастота кадров : 46,875 кадров/сек (1024 SPF)Метод сжатия : С потерямиРазмер потока : 139 Мбайт (4%)Заголовок : Ukrainian / Dub, LeDoyenДата кодирования : UTC 2018-06-06 17:59:49Дата пометки : UTC 2018-06-18 16:19:37

Аудио #3Идентификатор : 4Формат : AACФормат/Информация : Advanced Audio CodecПрофиль формата : LCИдентификатор кодека : mp4a-40-2Продолжительность : 2 ч. 31 м.Вид битрейта : ПеременныйБитрейт : 128 Кбит/секМаксимальный битрейт : 136 Кбит/секКаналы : 2 каналаРасположение каналов : Front: L RЧастота : 48,0 КГцЧастота кадров : 46,875 кадров/сек (1024 SPF)Метод сжатия : С потерямиРазмер потока : 139 Мбайт (4%)Заголовок : Russian / VO, ZhuvovДата кодирования : UTC 2018-06-06 17:52:48Дата пометки : UTC 2018-06-18 16:19:37

Аудио #4Идентификатор : 5Формат : AACФормат/Информация : Advanced Audio CodecПрофиль формата : LCИдентификатор кодека : mp4a-40-2Продолжительность : 2 ч. 31 м.Вид битрейта : ПеременныйБитрейт : 128 Кбит/секМаксимальный битрейт : 135 Кбит/секКаналы : 2 каналаРасположение каналов : Front: L RЧастота : 48,0 КГцЧастота кадров : 46,875 кадров/сек (1024 SPF)Метод сжатия : С потерямиРазмер потока : 139 Мбайт (4%)Заголовок : English / OriginalДата кодирования : UTC 2018-06-06 17:29:13Дата пометки : UTC 2018-06-18 16:19:37

Текст #1Идентификатор : 6Формат : Timed TextИдентификатор кодека : tx3gПродолжительность : 2 ч. 22 м.Вид битрейта : ПеременныйБитрейт : 1 бит/секРазмер потока : 1,11 Кбайт (0%)Заголовок : Russian / ForcedForced : НетДата кодирования : UTC 2018-06-18 16:19:37Дата пометки : UTC 2018-06-18 16:19:37

Текст #2Идентификатор : 7Формат : Timed TextИдентификатор кодека : tx3gПродолжительность : 2 ч. 22 м.Вид битрейта : ПеременныйБитрейт : 70 бит/секРазмер потока : 72,7 Кбайт (0%)Заголовок : Russian / FullForced : НетДата кодирования : UTC 2018-06-18 16:19:37Дата пометки : UTC 2018-06-18 16:19:37

Текст #3Идентификатор : 8Формат : Timed TextИдентификатор кодека : tx3gПродолжительность : 2 ч. 22 м.Вид битрейта : ПеременныйБитрейт : 44 бит/секРазмер потока : 46,2 Кбайт (0%)Заголовок : English / FullForced : НетДата кодирования : UTC 2018-06-18 16:19:37Дата пометки : UTC 2018-06-18 16:19:37


Трекер:  [ 19-Июн-2018 11:36 ]

  

Скачать .torrent

Размер .torrent файла 19 KB


Размер: 3.73 GB
Хэш (hash) релиза: e7bfd2f011c9ad79cdbc59299d7c91c8891c1b09

Торренты, похожие на [VIDEO] Звездные войны: Последние джедаи Star Wars: Episode VIII - The Last Jedi скачать торрент

Форум Название Автор Размер S L Добавлен
Видео (Фильмы/Клипы) ·%· [VIDEO] Звездные войны: Последние джедаи / Star Wars: Episode VIII - The Last Jedi (Райан Джонсон / Rian Johnson) [2017, фантастика, фэнтези, боевик, приключения, BDRip] [3GP, 320x] [Локализированный видеоряд] Galfimbul 547510006522 MB 0 0 1529397527

11:38

19-Июн-18

Видео (Фильмы/Клипы) ·%· [VIDEO] Звездные войны: Последние джедаи / Star Wars: Episode VIII - The Last Jedi (Райан Джонсон / Rian Johnson) [2017, фантастика, фэнтези, BDRip] [MP4, 960x] [Оригинальный видеоряд] Dub (Rus, Ukr), VO Живов, Original, Sub (rus, eng) Galfimbul 25753455352.4 GB 2 0 1529397460

11:37

19-Июн-18

Видео (Фильмы/Клипы) ·%· [VIDEO] Звездные войны: Последние джедаи / Star Wars: Episode VIII - The Last Jedi (Райан Джонсон / Rian Johnson) [2017, фантастика, фэнтези, BDRip] [MP4, 960x] [Локализованный видеоряд] Dub (Rus, Ukr), VO Живов, Original, Sub (rus, eng) Galfimbul 21848731032.03 GB 2 0 1529397451

11:37

19-Июн-18

Видео (Фильмы/Клипы) ·%· [VIDEO] Звездные войны: Последние джедаи / Star Wars: Episode VIII - The Last Jedi (Райан Джонсон / Rian Johnson) [2017, фантастика, фэнтези, боевик, приключения, BDRip] [MP4, 480x] [Локализированный видеоряд] Galfimbul 708096952675 MB 2 0 1529397435

11:37

19-Июн-18

Еще никто не оставлял запись к записи скачать торрент [VIDEO] Звездные войны: Последние джедаи Star Wars: Episode VIII - The Last Jedi . Будь первым!

!Обратная связь