Bruno Mars | Дикий / Braven (2018)... | Арт-хаус / Авторское кино

Скачать через торрент [VIDEO] Изгой-один: Звёздные войны. Истории Rogue One: A Star Wars Story бесплатно русская версия torrent активатор

Статистика раздачи
Размер:  600 MB   |    Зарегистрирован:  1 месяц 4 дня   |    .torrent скачан:  15 раз   |   
Раздают:  1  
   
загрузка...
 
Автор Сообщение

Galfimbul

avatar Galfimbul


Изгой-один: Звёздные войны. Истории / Rogue One: A Star Wars Story
[Локализированный видеоряд]

Год выпуска: 2016
Страна: США
Жанр: фантастика, фэнтези, боевик, приключения
Продолжительность: 02:13:57
Перевод: русский Профессиональный (полное дублирование) Blu-ray EUR
Субтитры: нет
Режиссер: Гарет Эдвардс / Gareth Edwards
В ролях: Фелисити Джонс, Диего Луна, Алан Тьюдик, Донни Йен, Цзян Вэнь, Бен Мендельсон, Форест Уитакер, Риз Ахмед, Мадс Миккельсен, Джимми Смитс и другие .
Описание: Сопротивление собирает отряд для выполнения особой миссии — надо выкрасть чертежи самого совершенного и смертоносного оружия Империи. Возглавляет бойцов неуправляемая и бесстрашная Джин Эрсо, у которой в этом самоубийственном задании есть и личные мотивы. Не всем суждено вернуться домой, но герои готовы к этому, ведь на кону судьба Галактики .
Релиз группы

Качество: BDRip / рип с Blu-ray disc 1080p [EUR]
Формат: MP4
Видео кодек: XviD
Аудио кодек: AAC
Видео: 480x200 AR:2.40 495 kbps 23.976 fps
Аудио: [Russian] 2ch 48 kHz 128 kbps - [Dub] Профессиональный (полное дублирование) Blu-ray EUR
ОбщееПолное имя : K:\Torrents\Rogue One A Star Wars Story.(Lokalizovannuy videoryad).2016.BDRip.XviD.480x.rip by Frost O.S.mp4Формат : MPEG-4Профиль формата : 3GPP Media Release 5Идентификатор кодека : 3gp5 (isom/3gp5/3gp4/mp41/mp42)Размер файла : 600 МбайтПродолжительность : 2 ч. 13 м.Режим общего битрейта : ПеременныйОбщий поток : 627 Кбит/секДата кодирования : UTC 2018-06-18 20:18:58Дата пометки : UTC 2018-06-18 20:18:58

ВидеоИдентификатор : 1Формат : MPEG-4 VisualПрофиль формата : Advanced [email protected]Настройки формата : BVOP / Custom MatrixПараметр BVOP формата : ДаПараметр QPel формата : НетПараметр GMC формата : Без точки переходаПараметр матрицы формата : ВыборочнаяИдентификатор кодека : mp4v-20Продолжительность : 2 ч. 13 м.Вид битрейта : ПеременныйБитрейт : 495 Кбит/секМаксимальный битрейт : 3764 Кбит/секШирина : 480 пикселейВысота : 200 пикселейСоотношение сторон : 2,40:1Режим частоты кадров : ПостоянныйЧастота кадров : 23,976 (24000/1001) кадра/секЦветовое пространство : YUVСубдискретизация насыщенности : 4:2:0Битовая глубина : 8 битТип развёртки : ПрогрессивнаяМетод сжатия : С потерямиБит/(Пиксели*Кадры) : 0.215Размер потока : 474 Мбайт (79%)Заголовок : [email protected]-DEV-rev248-g39d5978-masterБиблиотека кодирования : XviD 1.2.1 (UTC 2008-12-04)Дата кодирования : UTC 2018-06-07 19:41:22Дата пометки : UTC 2018-06-18 20:19:04

АудиоИдентификатор : 2Формат : AACФормат/Информация : Advanced Audio CodecПрофиль формата : LCИдентификатор кодека : mp4a-40-2Продолжительность : 2 ч. 13 м.Вид битрейта : ПеременныйБитрейт : 128 Кбит/секМаксимальный битрейт : 137 Кбит/секКаналы : 2 каналаРасположение каналов : Front: L RЧастота : 48,0 КГцЧастота кадров : 46,875 кадров/сек (1024 SPF)Метод сжатия : С потерямиРазмер потока : 123 Мбайт (20%)Заголовок : Russian / Dub, Blu-ray EURДата кодирования : UTC 2018-06-06 18:14:32Дата пометки : UTC 2018-06-18 20:19:04


Трекер:  [ 19-Июн-2018 11:36 ]

  

Скачать .torrent

Размер .torrent файла 12 KB


Размер: 600 MB
Хэш (hash) релиза: e547ce8a33c15e288eac89caa09a795920376e53

Торренты, похожие на [VIDEO] Изгой-один: Звёздные войны. Истории Rogue One: A Star Wars Story скачать торрент

Форум Название Автор Размер S L Добавлен
Видео (Фильмы/Клипы) ·· [VIDEO] Изгой-один: Звёздные войны. Истории / Rogue One: A Star Wars Story Wars (Гарет Эдвардс / Gareth Edwards) [2016, фантастика, боевик, приключения, BDRip] [MP4, 960x] Dub (Rus, Ukr), Original, Sub (rus, eng) Galfimbul 21491464262 GB 0 0 1491837910

18:25

10-Апр-17

Видео (Фильмы/Клипы) ·· [VIDEO] Изгой-один: Звёздные войны. Истории / Rogue One: A Star Wars Story Wars (Гарет Эдвардс / Gareth Edwards) [2016, фантастика, боевик, приключения, HDRip] [MP4, 480x] Dub Galfimbul 638028539608 MB 0 0 1491837904

18:25

10-Апр-17

Видео (Фильмы/Клипы) ·%· [VIDEO] Изгой-один: Звёздные войны. Истории / Rogue One: A Star Wars Story (Гарет Эдвардс / Gareth Edwards) [2016, фантастика, фэнтези, боевик, приключения, BDRip] [3GP, 320x] [Локализированный видеоряд] Galfimbul 482962581461 MB 0 0 1529397535

11:38

19-Июн-18

Видео (Фильмы/Клипы) ·%· [VIDEO] Изгой-один: Звёздные войны. Истории / Rogue One: A Star Wars Story (Гарет Эдвардс / Gareth Edwards) [2016, фантастика, фэнтези, боевик, приключения, BDRip] [MP4, 1280x] [Локализированный видеоряд] Galfimbul 37919289103.53 GB 0 0 1529397476

11:37

19-Июн-18

Видео (Фильмы/Клипы) ·%· [VIDEO] Изгой-один: Звёздные войны. Истории / Rogue One: A Star Wars Story (Гарет Эдвардс / Gareth Edwards) [2016, фантастика, фэнтези, боевик, приключения, BDRip] [MP4, 960x] [Локализированный видеоряд] Galfimbul 21911701172.04 GB 0 0 1529397468

11:37

19-Июн-18

Еще никто не оставлял запись к записи скачать торрент [VIDEO] Изгой-один: Звёздные войны. Истории Rogue One: A Star Wars Story . Будь первым!

!Обратная связь