Haunted Magazine - April 2018 | Télécharger Part 5 | 1x70 Dragon Ball Super

Скачать через торрент [VIDEO] Звездные войны: Эпизод 1 - Скрытая угроза Star Wars: Episode I - The Phantom Menace бесплатно русская версия torrent активатор

Статистика раздачи
Размер:  2.8 GB   |    Зарегистрирован:  1 месяц 4 дня   |    .torrent скачан:  23 раза   |   
Раздают:  1  
   
загрузка...
 
Автор Сообщение

Galfimbul

avatar Galfimbul


Звездные войны: Эпизод 1 - Скрытая угроза / Star Wars: Episode I - The Phantom Menace
[Локализированный видеоряд]

Год выпуска: 1999
Страна: США
Жанр: фантастика, фэнтези, боевик, приключения
Продолжительность: 02:16:19
Перевод №1: русский Профессиональный (полное дублирование) «Невафильм»
Перевод №2: русский Профессиональный (многоголосый, закадровый) «Tycoon-Studio»
Перевод №3: русский Профессиональный (многоголосый, закадровый) «Киномания»
Перевод №4: украинский Профессиональный (многоголосый, закадровый) ICTV
Перевод №5: русский Авторский (одноголосый, закадровый) Живов
Перевод №6: русский Авторский (одноголосый, закадровый) Гаврилов
Перевод №7: русский Авторский (одноголосый, закадровый) Дмитрий Пучков Смешной перевод ст. Божья Искра (Гоблин)
Оригинальная дорожка: Есть
Субтитры: русские (Tycoon), (Forced), (Full), английские (Full)
Режиссер: Джордж Лукас / George Lucas
В ролях: Лиам Нисон, Юэн МакГрегор, Натали Портман, Джейк Ллойд, Иэн МакДайармид, Пернилла Аугуст, Оливер Форд Дэвис, Хью Куарши, Ахмед Бест, Энтони Дэниелс, Сэмюэл Л. Джексон, София Коппола, Кира Найтли и другие .
Описание: Мирная и процветающая планета Набу. Торговая федерация, не желая платить налоги, вступает в прямой конфликт с королевой Амидалой, правящей на планете, что приводит к войне. На стороне королевы и республики в ней участвуют два рыцаря-джедая: учитель и ученик, Квай-Гон-Джин и Оби-Ван Кеноби…
Релиз группы

Качество: BDRip / рип с Blu-ray disc 1080p
Формат: MP4
Видео кодек: H.264
Аудио кодек: AAC
Видео: 1280x544 AR:2.35 1900 kbps 23.976 fps
Аудио №1: [Russian] 2ch 48 kHz 128 kbps - [Dub] Профессиональный (полное дублирование) «Невафильм»
Аудио №2: [Russian] 2ch 48 kHz 128 kbps - [MVO] Профессиональный (многоголосый, закадровый) «Tycoon-Studio»
Аудио №3: [Russian] 2ch 48 kHz 128 kbps - [MVO] Профессиональный (многоголосый, закадровый) «Киномания»
Аудио №4: [Ukrainian] 2ch 48 kHz 128 kbps - [MVO] Профессиональный (многоголосый, закадровый) ICTV
Аудио №5: [Russian] 2ch 48 kHz 128 kbps - [VO] Авторский (одноголосый, закадровый) Живов
Аудио №6: [Russian] 2ch 48 kHz 128 kbps - [VO] Авторский (одноголосый, закадровый) Гаврилов
Аудио №7: [Russian] 2ch 48 kHz 128 kbps - [VO] Авторский (одноголосый, закадровый) Дмитрий Пучков Смешной перевод ст. Божья Искра (Гоблин)
Аудио №8: [English] 2ch 48 kHz 128 kbps - Original
avs [info]: 1280x544p 1:1 @ 24000/1001 fps (cfr)
x264 [info]: using SAR=1/1
x264 [info]: using cpu capabilities: MMX2 SSE2Fast SSSE3 SSE4.2 AVX FMA3 BMI2 AVX2
x264 [info]: profile High, level 4.1

x264 [info]: frame I:1809 Avg QP:16.44 size: 76167
x264 [info]: frame P:51298 Avg QP:19.55 size: 19940
x264 [info]: frame B:142799 Avg QP:21.41 size: 5458
x264 [info]: consecutive B-frames: 5.4% 5.0% 11.6% 22.6% 18.5% 30.8% 3.4% 1.6% 1.1%
x264 [info]: mb I I16..4: 6.4% 74.8% 18.8%
x264 [info]: mb P I16..4: 1.9% 8.6% 1.5% P16..4: 47.4% 21.3% 10.9% 0.0% 0.0% skip: 8.3%
x264 [info]: mb B I16..4: 0.1% 0.6% 0.1% B16..8: 39.0% 7.1% 1.7% direct: 3.0% skip:48.4% L0:43.3% L1:48.7% BI: 8.1%
x264 [info]: 8x8 transform intra:72.4% inter:61.2%
x264 [info]: direct mvs spatial:97.1% temporal:2.9%
x264 [info]: coded y,uvDC,uvAC intra: 78.2% 73.3% 38.0% inter: 16.5% 15.8% 4.3%
x264 [info]: i16 v,h,dc,p: 20% 20% 6% 55%
x264 [info]: i8 v,h,dc,ddl,ddr,vr,hd,vl,hu: 9% 9% 6% 9% 15% 14% 15% 11% 13%
x264 [info]: i4 v,h,dc,ddl,ddr,vr,hd,vl,hu: 9% 9% 3% 9% 16% 14% 15% 11% 13%
x264 [info]: i8c dc,h,v,p: 34% 28% 19% 19%
x264 [info]: Weighted P-Frames: Y:8.4% UV:5.6%
x264 [info]: ref P L0: 53.2% 10.0% 15.6% 5.6% 4.5% 3.3% 2.9% 1.6% 1.5% 1.4% 0.3% 0.0%
x264 [info]: ref B L0: 77.0% 10.1% 5.1% 2.5% 1.8% 1.4% 1.2% 0.6% 0.3%
x264 [info]: ref B L1: 94.9% 5.1%
x264 [info]: kb/s:1899.52

encoded 195906 frames, 17.95 fps, 1899.52 kb/s
ОбщееПолное имя : K:\Torrents\Star Wars Episode I - The Phantom Menace.(Lokalizovannuy videoryad).1999.BDRip.x264.1280x.rip by Frost O.S.mp4Формат : MPEG-4Профиль формата : 3GPP Release 6 GeneralИдентификатор кодека : 3gg6 (isom/3gg6/mp42)Размер файла : 2,80 ГбайтПродолжительность : 2 ч. 16 м.Режим общего битрейта : ПеременныйОбщий поток : 2937 Кбит/секДата кодирования : UTC 2018-06-18 16:58:31Дата пометки : UTC 2018-06-18 16:58:31Программа кодирования : Yamb 2.1.0.0

ВидеоИдентификатор : 1Формат : AVCФормат/Информация : Advanced Video CodecПрофиль формата : [email protected]Настройки формата : CABAC / 10 Ref FramesПараметр CABAC формата : ДаПараметр RefFrames формата : 10 кадровИдентификатор кодека : avc1Идентификатор кодека/Информация : Advanced Video CodingПродолжительность : 2 ч. 16 м.Битрейт : 1900 Кбит/секМаксимальный битрейт : 8377 Кбит/секШирина : 1280 пикселейВысота : 544 пикселяСоотношение сторон : 2,35:1Режим частоты кадров : ПостоянныйЧастота кадров : 23,976 (24000/1001) кадра/секЦветовое пространство : YUVСубдискретизация насыщенности : 4:2:0Битовая глубина : 8 битТип развёртки : ПрогрессивнаяБит/(Пиксели*Кадры) : 0.114Размер потока : 1,81 Гбайт (65%)Библиотека кодирования : x264 core 152 r2851 ba24899Настройки программы : cabac=1 / ref=10 / deblock=1:-1:-1 / analyse=0x3:0x113 / me=umh / subme=9 / psy=1 / psy_rd=1.00:0.00 / mixed_ref=1 / me_range=32 / chroma_me=1 / trellis=2 / 8x8dct=1 / cqm=0 / deadzone=21,11 / fast_pskip=0 / chroma_qp_offset=-2 / threads=6 / lookahead_threads=1 / sliced_threads=0 / nr=0 / decimate=0 / interlaced=0 / bluray_compat=0 / constrained_intra=0 / bframes=8 / b_pyramid=2 / b_adapt=2 / b_bias=0 / direct=3 / weightb=1 / open_gop=0 / weightp=2 / keyint=250 / keyint_min=23 / scenecut=40 / intra_refresh=0 / rc=2pass / mbtree=0 / bitrate=1900 / ratetol=1.0 / qcomp=0.70 / qpmin=0 / qpmax=69 / qpstep=4 / cplxblur=20.0 / qblur=0.5 / ip_ratio=1.40 / pb_ratio=1.30 / aq=3:0.90Дата кодирования : UTC 2018-06-15 10:16:55Дата пометки : UTC 2018-06-18 16:59:07Цветовой диапазон : LimitedОсновные цвета : BT.709Характеристики трансфера : BT.709Коэффициенты матрицы : BT.709

Аудио #1Идентификатор : 2Формат : AACФормат/Информация : Advanced Audio CodecПрофиль формата : LCИдентификатор кодека : mp4a-40-2Продолжительность : 2 ч. 16 м.Вид битрейта : ПеременныйБитрейт : 128 Кбит/секМаксимальный битрейт : 133 Кбит/секКаналы : 2 каналаРасположение каналов : Front: L RЧастота : 48,0 КГцЧастота кадров : 46,875 кадров/сек (1024 SPF)Метод сжатия : С потерямиРазмер потока : 125 Мбайт (4%)Заголовок : Russian / Dub, NevafilmДата кодирования : UTC 2018-06-17 18:04:26Дата пометки : UTC 2018-06-18 16:59:07

Аудио #2Идентификатор : 3Формат : AACФормат/Информация : Advanced Audio CodecПрофиль формата : LCИдентификатор кодека : mp4a-40-2Продолжительность : 2 ч. 16 м.Вид битрейта : ПеременныйБитрейт : 128 Кбит/секМаксимальный битрейт : 135 Кбит/секКаналы : 2 каналаРасположение каналов : Front: L RЧастота : 48,0 КГцЧастота кадров : 46,875 кадров/сек (1024 SPF)Метод сжатия : С потерямиРазмер потока : 125 Мбайт (4%)Заголовок : Russian / MVO, Tycoon-StudioДата кодирования : UTC 2018-06-17 18:11:12Дата пометки : UTC 2018-06-18 16:59:07

Аудио #3Идентификатор : 4Формат : AACФормат/Информация : Advanced Audio CodecПрофиль формата : LCИдентификатор кодека : mp4a-40-2Продолжительность : 2 ч. 16 м.Вид битрейта : ПеременныйБитрейт : 128 Кбит/секМаксимальный битрейт : 134 Кбит/секКаналы : 2 каналаРасположение каналов : Front: L RЧастота : 48,0 КГцЧастота кадров : 46,875 кадров/сек (1024 SPF)Метод сжатия : С потерямиРазмер потока : 125 Мбайт (4%)Заголовок : Russian / MVO, KinomaniyaДата кодирования : UTC 2018-06-17 18:15:23Дата пометки : UTC 2018-06-18 16:59:07

Аудио #4Идентификатор : 5Формат : AACФормат/Информация : Advanced Audio CodecПрофиль формата : LCИдентификатор кодека : mp4a-40-2Продолжительность : 2 ч. 16 м.Вид битрейта : ПеременныйБитрейт : 128 Кбит/секМаксимальный битрейт : 134 Кбит/секКаналы : 2 каналаРасположение каналов : Front: L RЧастота : 48,0 КГцЧастота кадров : 46,875 кадров/сек (1024 SPF)Метод сжатия : С потерямиРазмер потока : 125 Мбайт (4%)Заголовок : Ukrainian / MVO, ICTVДата кодирования : UTC 2018-06-17 18:37:04Дата пометки : UTC 2018-06-18 16:59:07

Аудио #5Идентификатор : 6Формат : AACФормат/Информация : Advanced Audio CodecПрофиль формата : LCИдентификатор кодека : mp4a-40-2Продолжительность : 2 ч. 16 м.Вид битрейта : ПеременныйБитрейт : 128 Кбит/секМаксимальный битрейт : 136 Кбит/секКаналы : 2 каналаРасположение каналов : Front: L RЧастота : 48,0 КГцЧастота кадров : 46,875 кадров/сек (1024 SPF)Метод сжатия : С потерямиРазмер потока : 125 Мбайт (4%)Заголовок : Russian / VO, ZhuvovДата кодирования : UTC 2018-06-17 18:24:06Дата пометки : UTC 2018-06-18 16:59:07

Аудио #6Идентификатор : 7Формат : AACФормат/Информация : Advanced Audio CodecПрофиль формата : LCИдентификатор кодека : mp4a-40-2Продолжительность : 2 ч. 16 м.Вид битрейта : ПеременныйБитрейт : 128 Кбит/секМаксимальный битрейт : 135 Кбит/секКаналы : 2 каналаРасположение каналов : Front: L RЧастота : 48,0 КГцЧастота кадров : 46,875 кадров/сек (1024 SPF)Метод сжатия : С потерямиРазмер потока : 125 Мбайт (4%)Заголовок : Russian / VO, GavrilovДата кодирования : UTC 2018-06-17 18:19:30Дата пометки : UTC 2018-06-18 16:59:07

Аудио #7Идентификатор : 8Формат : AACФормат/Информация : Advanced Audio CodecПрофиль формата : LCИдентификатор кодека : mp4a-40-2Продолжительность : 2 ч. 16 м.Вид битрейта : ПеременныйБитрейт : 128 Кбит/секМаксимальный битрейт : 134 Кбит/секКаналы : 2 каналаРасположение каналов : Front: L RЧастота : 48,0 КГцЧастота кадров : 46,875 кадров/сек (1024 SPF)Метод сжатия : С потерямиРазмер потока : 125 Мбайт (4%)Заголовок : Russian / VO, GoblinДата кодирования : UTC 2018-06-17 18:33:09Дата пометки : UTC 2018-06-18 16:59:07

Аудио #8Идентификатор : 9Формат : AACФормат/Информация : Advanced Audio CodecПрофиль формата : LCИдентификатор кодека : mp4a-40-2Продолжительность : 2 ч. 16 м.Вид битрейта : ПеременныйБитрейт : 128 Кбит/секМаксимальный битрейт : 137 Кбит/секКаналы : 2 каналаРасположение каналов : Front: L RЧастота : 48,0 КГцЧастота кадров : 46,875 кадров/сек (1024 SPF)Метод сжатия : С потерямиРазмер потока : 125 Мбайт (4%)Заголовок : English / OriginalДата кодирования : UTC 2018-06-17 18:41:26Дата пометки : UTC 2018-06-18 16:59:07

Текст #1Идентификатор : 10Формат : Timed TextИдентификатор кодека : tx3gПродолжительность : 2 ч. 9 м.Вид битрейта : ПеременныйБитрейт : 91 бит/секРазмер потока : 87,0 Кбайт (0%)Заголовок : Russian / TycoonForced : НетДата кодирования : UTC 2018-06-18 16:59:07Дата пометки : UTC 2018-06-18 16:59:07

Текст #2Идентификатор : 11Формат : Timed TextИдентификатор кодека : tx3gПродолжительность : 58 м. 27 с.Вид битрейта : ПеременныйБитрейт : 6 бит/секРазмер потока : 2,61 Кбайт (0%)Заголовок : Russian / ForcedForced : НетДата кодирования : UTC 2018-06-18 16:59:07Дата пометки : UTC 2018-06-18 16:59:07

Текст #3Идентификатор : 12Формат : Timed TextИдентификатор кодека : tx3gПродолжительность : 2 ч. 16 м.Вид битрейта : ПеременныйБитрейт : 91 бит/секРазмер потока : 90,4 Кбайт (0%)Заголовок : Russian / FullForced : НетДата кодирования : UTC 2018-06-18 16:59:07Дата пометки : UTC 2018-06-18 16:59:07

Текст #4Идентификатор : 13Формат : Timed TextИдентификатор кодека : tx3gПродолжительность : 2 ч. 16 м.Вид битрейта : ПеременныйБитрейт : 53 бит/секРазмер потока : 52,6 Кбайт (0%)Заголовок : English / FullForced : НетДата кодирования : UTC 2018-06-18 16:59:07Дата пометки : UTC 2018-06-18 16:59:07


Трекер:  [ 19-Июн-2018 11:36 ]

  

Скачать .torrent

Размер .torrent файла 14 KB


Размер: 2.8 GB
Хэш (hash) релиза: d8277fd5d420513b5cabb6ad19a858c239499df7

Еще никто не оставлял запись к записи скачать торрент [VIDEO] Звездные войны: Эпизод 1 - Скрытая угроза Star Wars: Episode I - The Phantom Menace . Будь первым!

!Обратная связь