Monster Carp: Season ... | افلام هندي imdb 6.0 71 فيلم Rangoon 2017 HD DVD مترجم اون لاين | Aflamnat مشاهدة وتحميل فيلم الاكشن و الدراما الهندي Rangoon 2017 بطولة النجم شاهد كابور و النجم سيف علي خان مترجم بجودة | IMDb: 7.0 HD Cocaine Godmother

Скачать через торрент Дикая Южная Африка: По Следам Белых Акул Wildlife Südafrika бесплатно русская версия torrent активатор

Статистика раздачи
Размер:  2.15 GB   |    Зарегистрирован:  1 месяц 2 дня   |    .torrent скачан:  40 раз   |   
Раздают:  1  
   
загрузка...
 
Автор Сообщение

Galfimbul

avatar Galfimbul


Дикая Южная Африка: По Следам Белых Акул / Wildlife Südafrika
-

/ 10 / 10
Год выпуска: 2012
Страна: Германия
Жанр: Документальный, видовой, исследования, природа, флора, фауна
Продолжительность: 00:47:18

Перевод: Одноголосый закадровый
Оригинальная аудиодорожка: Есть
Cубтитры: Нет
Режиссёр: Норберт Вандер
Сценарий: Норберт Вандер
Продюсер: Бенжамин Краузе, Петер Баатен

Релиз на DVD: 24 апреля 2013, «Кармен Видео»
Релиз на Blu-Ray: 25 апреля 2013, «Мистерия Звука», «Кармен Видео»

Описание: Протяжённость Южно-Африканского побережья 2786 км. С запада оно омывается Атлантическим океаном, с востока - Индийским. В середине находится мыс Доброй Надежды - кладбище кораблей. В этом "повинны" два течения - со стороны Атлантики холодное Benguela, а с Индийского океана - тёплое Agulahasstrom. Эти условия создали неповторимую флору и фауну. В этом фильме показана природа Западного мыса (недалеко от мыса Доброй Надежды). Мы увидим китов, морских львов, пингвинов, подразним и заглянем в рот белой акулы. А также мы встретимся с большой белой акулой в районе острова Дайер, известном под названием Акулья аллея.
Качество исходника: BDRemux (Кинозал)
Качество: BDRip
Тип: HD (720p)
Контейнер: M4V
Видео: H.264, 1280x720, 16:9, 5 100 Kbps, 23.976 (24000/1001) fps

Аудио 1: Русский/Одноголосый закадровый , AAC / 2.0 / 160 Kbps / 48.0 KHz
Аудио 2: Английский/Оригинальная дорожка , AAC / 2.0 / 160 Kbps / 48.0 KHz
Аудио 3: Русский/Одноголосый закадровый , AC-3 / 5.1 / 640 Kbps / 48.0 KHz
Аудио 4: Английский/Оригинальная дорожка , AC-3 / 5.1 / 448 Kbps / 48.0 KHz
Sort Name: Wildlife South Africa: Westkap
XID: Apple:vendor_id:2012-756685
Producers: Бенжамин Краузе, Петер Баатен
Director: Норберт Вандер
Studio: KSM
Rating: 132
Long Description: Протяжённость Южно-Африканского побережья 2786 км. С запада оно омывается Атлантическим океаном, с востока - Индийским. В середине находится мыс Доброй Надежды - кладбище кораблей. В этом \"повинны\" два течения - со стороны Атлантики холодное Benguela, а с Индийского океана - тёплое Agulahasstrom. Эти условия создали неповторимую флору и фауну. В этом фильме показана природа Западного мыса (недалеко от мыса Доброй Надежды). Мы увидим китов, морских львов, пингвинов, подразним и заглянем в рот белой акулы. А также мы встретимся с большой белой акулой в районе острова Дайер, известном под названием Акулья аллея.
Description: Протяжённость Южно-Африканского побережья 2786 км. С запада оно омывается Атлантическим океаном, с востока - Индийским. В середине находится мыс Доброй Надежды - кладбище кораблей. В этом \"повинны\" два течения - со стороны Атлантики холодное Benguela, а с Индийского океана - тёплое Agulahasstrom.
Release Date: 2012-01-01T08:00:00Z
Genre: Documentary
Artist: Norbert Vander
Name: Wildlife South Africa: Westkap
General
Complete name                            : /Users/imac/HandBrake/Wildlife.South.Africa.Part.3.Westkap.720p.HD.m4v
Format                                   : MPEG-4
Codec ID                                 : M4V  (M4V /M4A /mp42/isom)
File size                                : 2.15 GiB
Duration                                 : 47mn 18s
Overall bit rate mode                    : Variable
Overall bit rate                         : 6 512 Kbps
Movie name                               : Wildlife South Africa: Westkap
Performer                                : Norbert Vander
Director                                 : Норберт Вандер
Producer                                 : Бенжамин Краузе / Петер Баатен
Production studio                        : KSM
Genre                                    : Documentary
ContentType                              : Short Film
Description                              : Протяжённость Южно-Африканского побережья 2786 км. С запада оно омывается Атлантическим океаном, с востока - Индийским. В середине находится мыс Доброй Надежды - кладбище кораблей. В этом \"повинны\" два течения - со стороны Атлантики холодное Benguela, а с Индийского океана - тёплое Agulahasstrom.
Recorded date                            : UTC 2012-01-01 08:00:00
Encoded date                             : UTC 2018-06-18 19:32:34
Tagged date                              : UTC 2018-06-18 19:33:58
Cover                                    : Yes
Rating                                   : None
Title/Sort                               : Wildlife South Africa: Westkap
LongDescription                          : Протяжённость Южно-Африканского побережья 2786 км. С запада оно омывается Атлантическим океаном, с востока - Индийским. В середине находится мыс Доброй Надежды - кладбище кораблей. В этом \"повинны\" два течения - со стороны Атлантики холодное Benguela, а с Индийского океана - тёплое Agulahasstrom. Эти условия создали неповторимую флору и фауну. В этом фильме показана природа Западного мыса (недалеко от мыса Доброй Надежды). Мы увидим китов, морских львов, пингвинов, подразним и заглянем в рот белой акулы. А также мы встретимся с большой белой акулой в районе острова Дайер, известном под названием Акулья аллея.
HDVideo                                  : Yes
Vendor                                   : Apple:vendor_id:2012-756685
ContentRating                            : ru-movie|0+|000|

Video #1
ID                                       : 1
Format                                   : AVC
Format/Info                              : Advanced Video Codec
Format profile                           : [email protected]
Format settings                          : 3 Ref Frames
Format settings, CABAC                   : No
Format settings, ReFrames                : 3 frames
Codec ID                                 : avc1
Codec ID/Info                            : Advanced Video Coding
Duration                                 : 47mn 18s
Source duration                          : 47mn 18s
Bit rate                                 : 5 100 Kbps
Width                                    : 1 280 pixels
Height                                   : 720 pixels
Display aspect ratio                     : 16:9
Frame rate mode                          : Variable
Frame rate                               : 23.976 (24000/1001) fps
Minimum frame rate                       : 23.974 fps
Maximum frame rate                       : 23.981 fps
Color space                              : YUV
Chroma subsampling                       : 4:2:0
Bit depth                                : 8 bits
Scan type                                : Progressive
Bits/(Pixel*Frame)                       : 0.231
Stream size                              : 1.68 GiB (78%)
Source stream size                       : 1.68 GiB (78%)
Title                                    : Main Program
Writing library                          : x264 core 155 r2893 b00bcaf
Encoding settings                        : cabac=0 / ref=3 / deblock=1:-3:-3 / analyse=0x3:0x113 / me=umh / subme=9 / psy=1 / psy_rd=1.00:0.15 / mixed_ref=1 / me_range=32 / chroma_me=1 / trellis=0 / 8x8dct=1 / cqm=0 / deadzone=21,11 / fast_pskip=0 / chroma_qp_offset=-2 / threads=22 / lookahead_threads=1 / sliced_threads=0 / nr=0 / decimate=0 / interlaced=0 / bluray_compat=0 / constrained_intra=0 / bframes=3 / b_pyramid=0 / b_adapt=2 / b_bias=0 / direct=1 / weightb=0 / open_gop=0 / weightp=0 / keyint=240 / keyint_min=24 / scenecut=40 / intra_refresh=0 / rc_lookahead=40 / rc=2pass / mbtree=1 / bitrate=5100 / ratetol=1.0 / qcomp=0.65 / qpmin=0 / qpmax=69 / qpstep=4 / cplxblur=20.0 / qblur=0.5 / vbv_maxrate=9500 / vbv_bufsize=9500 / nal_hrd=none / filler=0 / ip_ratio=1.40 / aq=1:1.10
Language                                 : English
Encoded date                             : UTC 2018-06-18 19:32:34
Tagged date                              : UTC 2018-06-18 19:32:38
Color range                              : Limited
Color primaries                          : BT.709
Transfer characteristics                 : BT.709
Matrix coefficients                      : BT.709
Menus                                    : 6,7

Video #2
ID                                       : 7
Format                                   : JPEG
Codec ID                                 : jpeg
Duration                                 : 47mn 18s
Bit rate mode                            : Variable
Bit rate                                 : 1 199 bps
Width                                    : 640 pixels
Height                                   : 360 pixels
Display aspect ratio                     : 16:9
Frame rate mode                          : Variable
Frame rate                               : 0.003 fps
Minimum frame rate                       : 0.002 fps
Maximum frame rate                       : 0.003 fps
Color space                              : YUV
Chroma subsampling                       : 4:2:0
Bit depth                                : 8 bits
Compression mode                         : Lossy
Bits/(Pixel*Frame)                       : 1.735
Stream size                              : 390 KiB (0%)
Title                                    : Chapter Images
Language                                 : English
Default                                  : No
Encoded date                             : UTC 2018-06-18 19:32:42
Tagged date                              : UTC 2018-06-18 19:32:42
Menu For                                 : 1
ColorSpace_ICC                           : RGB

Audio #1
ID                                       : 2
Format                                   : AAC
Format/Info                              : Advanced Audio Codec
Format profile                           : LC
Codec ID                                 : mp4a-40-2
Duration                                 : 47mn 18s
Source duration                          : 47mn 18s
Bit rate mode                            : Variable
Bit rate                                 : 162 Kbps
Maximum bit rate                         : 226 Kbps
Channel(s)                               : 2 channels
Channel positions                        : Front: L R
Sampling rate                            : 48.0 KHz
Frame rate                               : 46.875 fps (1024 SPF)
Compression mode                         : Lossy
Stream size                              : 54.6 MiB (2%)
Source stream size                       : 54.6 MiB (2%)
Title                                    : Russian Stereo
Language                                 : Russian
Default                                  : Yes
Alternate group                          : 1
Encoded date                             : UTC 2018-06-18 19:32:34
Tagged date                              : UTC 2018-06-18 19:32:40
Fallback From                            : 4

Audio #2
ID                                       : 3
Format                                   : AAC
Format/Info                              : Advanced Audio Codec
Format profile                           : LC
Codec ID                                 : mp4a-40-2
Duration                                 : 47mn 18s
Source duration                          : 47mn 18s
Bit rate mode                            : Variable
Bit rate                                 : 161 Kbps
Maximum bit rate                         : 236 Kbps
Channel(s)                               : 2 channels
Channel positions                        : Front: L R
Sampling rate                            : 48.0 KHz
Frame rate                               : 46.875 fps (1024 SPF)
Compression mode                         : Lossy
Stream size                              : 54.5 MiB (2%)
Source stream size                       : 54.5 MiB (2%)
Title                                    : English Stereo
Language                                 : English
Default                                  : No
Alternate group                          : 1
Encoded date                             : UTC 2018-06-18 19:32:34
Tagged date                              : UTC 2018-06-18 19:32:40
Fallback From                            : 5

Audio #3
ID                                       : 4
Format                                   : AC-3
Format/Info                              : Audio Coding 3
Codec ID                                 : ac-3
Duration                                 : 47mn 18s
Bit rate mode                            : Constant
Bit rate                                 : 640 Kbps
Channel(s)                               : 6 channels
Channel positions                        : Front: L C R, Side: L R, LFE
Sampling rate                            : 48.0 KHz
Frame rate                               : 31.250 fps (1536 SPF)
Bit depth                                : 16 bits
Compression mode                         : Lossy
Stream size                              : 217 MiB (10%)
Title                                    : Russian DD 5.1
Language                                 : Russian
Service kind                             : Complete Main
Default                                  : Inherited From: 2
Alternate group                          : 1
Encoded date                             : UTC 2018-06-18 19:32:34
Tagged date                              : UTC 2018-06-18 19:32:40
Fallback To                              : 2

Audio #4
ID                                       : 5
Format                                   : AC-3
Format/Info                              : Audio Coding 3
Codec ID                                 : ac-3
Duration                                 : 47mn 18s
Bit rate mode                            : Constant
Bit rate                                 : 448 Kbps
Channel(s)                               : 6 channels
Channel positions                        : Front: L C R, Side: L R, LFE
Sampling rate                            : 48.0 KHz
Frame rate                               : 31.250 fps (1536 SPF)
Bit depth                                : 16 bits
Compression mode                         : Lossy
Stream size                              : 152 MiB (7%)
Title                                    : English DD 5.1
Language                                 : English
Service kind                             : Complete Main
Default                                  : No
Alternate group                          : 1
Encoded date                             : UTC 2018-06-18 19:32:34
Tagged date                              : UTC 2018-06-18 19:32:40
Fallback To                              : 3

Menu #1
00:00:00.000                             : Chapter 1
00:04:51.249                             : Chapter 2
00:11:41.075                             : Chapter 3
00:18:46.125                             : Chapter 4
00:23:38.459                             : Chapter 5
00:30:00.590                             : Chapter 6
00:34:48.044                             : Chapter 7
00:41:22.814                             : Chapter 8

Menu #2
ID                                       : 6
Codec ID                                 : text
Duration                                 : 47mn 18s
Language                                 : English
Encoded date                             : UTC 2018-06-18 19:32:40
Tagged date                              : UTC 2018-06-18 19:32:40
Bit rate mode                            : CBR
Menu For                                 : 1
00:00:00.000                             : Chapter 1
00:04:51.249                             : Chapter 2
00:11:41.075                             : Chapter 3
00:18:46.125                             : Chapter 4
00:23:38.459                             : Chapter 5
00:30:00.590                             : Chapter 6
00:34:48.044                             : Chapter 7
00:41:22.814                             : Chapter 8
Sort Name: Wildlife South Africa: Westkap
XID: Apple:vendor_id:2012-756685
Producers: Бенжамин Краузе, Петер Баатен
Director: Норберт Вандер
Studio: KSM
Rating: 132
Long Description: Протяжённость Южно-Африканского побережья 2786 км. С запада оно омывается Атлантическим океаном, с востока - Индийским. В середине находится мыс Доброй Надежды - кладбище кораблей. В этом \"повинны\" два течения - со стороны Атлантики холодное Benguela, а с Индийского океана - тёплое Agulahasstrom. Эти условия создали неповторимую флору и фауну. В этом фильме показана природа Западного мыса (недалеко от мыса Доброй Надежды). Мы увидим китов, морских львов, пингвинов, подразним и заглянем в рот белой акулы. А также мы встретимся с большой белой акулой в районе острова Дайер, известном под названием Акулья аллея.
Description: Протяжённость Южно-Африканского побережья 2786 км. С запада оно омывается Атлантическим океаном, с востока - Индийским. В середине находится мыс Доброй Надежды - кладбище кораблей. В этом \"повинны\" два течения - со стороны Атлантики холодное Benguela, а с Индийского океана - тёплое Agulahasstrom.
Release Date: 2012-01-01T08:00:00Z
Genre: Documentary
Artist: Norbert Vander
Name: Wildlife South Africa: Westkap

Релиз подготовлен для просмотра на Apple TV, iPad, iPhone, iPod Touch.
Для просмотра данного релиза на компьютере с ОС Windows рекомендуется использовать VLC media player

Трекер:  [ 18-Июн-2018 23:06 ]

  

Скачать .torrent

Размер .torrent файла 22 KB


Размер: 2.15 GB
Хэш (hash) релиза: 27d25c670b3660451177368debba1a1c052d29c3

Еще никто не оставлял запись к записи скачать торрент Дикая Южная Африка: По Следам Белых Акул Wildlife Südafrika . Будь первым!

!Обратная связь