BD Hack//Quantum Subtitle Indonesia | Download | HD Views: 119 Listening to the Voice of a Wind(1970)

Скачать через торрент [ATV3] Дикая Южная Африка Wildlife Südafrika бесплатно русская версия torrent активатор

Статистика раздачи
Размер:  3.94 GB   |    Зарегистрирован:  1 месяц 2 дня   |    .torrent скачан:  21 раз   |   
Раздают:  1  
   
загрузка...
 
Автор Сообщение

Galfimbul

avatar Galfimbul


Дикая Южная Африка / Wildlife Südafrika
-

/ 10 / 10
Год выпуска: 2012
Страна: Германия
Жанр: Документальный, видовой, исследования, природа, флора, фауна
Продолжительность: 00:47:18

Перевод: Одноголосый закадровый
Оригинальная аудиодорожка: Есть
Cубтитры: Нет
Режиссёр: Норберт Вандер
Сценарий: Норберт Вандер
Продюсер: Бенжамин Краузе, Петер Баатен

Релиз на DVD: 24 апреля 2013, «Кармен Видео»
Релиз на Blu-Ray: 25 апреля 2013, «Мистерия Звука», «Кармен Видео»

Описание: Протяжённость Южно-Африканского побережья 2786 км. С запада оно омывается Атлантическим океаном, с востока - Индийским. В середине находится мыс Доброй Надежды - кладбище кораблей. В этом "повинны" два течения - со стороны Атлантики холодное Benguela, а с Индийского океана - тёплое Agulahasstrom. Эти условия создали неповторимую флору и фауну. В этом фильме показана природа Западного мыса (недалеко от мыса Доброй Надежды). Мы увидим китов, морских львов, пингвинов, подразним и заглянем в рот белой акулы. А также мы встретимся с большой белой акулой в районе острова Дайер, известном под названием Акулья аллея.
Качество исходника: BDRemux (Кинозал)
Качество: BDRip
Тип: HD (1080p)
Контейнер: M4V
Видео: H.264, 1920x1080, 16:9, 10.5 Mbps, 23.976 (24000/1001) fps

Аудио 1: Русский/Одноголосый закадровый , AAC / 2.0 / 160 Kbps / 48.0 KHz
Аудио 2: Английский/Оригинальная дорожка , AAC / 2.0 / 160 Kbps / 48.0 KHz
Аудио 3: Русский/Одноголосый закадровый , AC-3 / 5.1 / 640 Kbps / 48.0 KHz
Аудио 4: Английский/Оригинальная дорожка , AC-3 / 5.1 / 448 Kbps / 48.0 KHz
Sort Name: Wildlife South Africa: Westkap
XID: Apple:vendor_id:2012-756685
Producers: Бенжамин Краузе, Петер Баатен
Director: Норберт Вандер
Studio: KSM
Rating: 132
Long Description: Протяжённость Южно-Африканского побережья 2786 км. С запада оно омывается Атлантическим океаном, с востока - Индийским. В середине находится мыс Доброй Надежды - кладбище кораблей. В этом \"повинны\" два течения - со стороны Атлантики холодное Benguela, а с Индийского океана - тёплое Agulahasstrom. Эти условия создали неповторимую флору и фауну. В этом фильме показана природа Западного мыса (недалеко от мыса Доброй Надежды). Мы увидим китов, морских львов, пингвинов, подразним и заглянем в рот белой акулы. А также мы встретимся с большой белой акулой в районе острова Дайер, известном под названием Акулья аллея.
Description: Протяжённость Южно-Африканского побережья 2786 км. С запада оно омывается Атлантическим океаном, с востока - Индийским. В середине находится мыс Доброй Надежды - кладбище кораблей. В этом \"повинны\" два течения - со стороны Атлантики холодное Benguela, а с Индийского океана - тёплое Agulahasstrom.
Release Date: 2012-01-01T08:00:00Z
Genre: Documentary
Artist: Norbert Vander
Name: Wildlife South Africa: Westkap
General
Complete name                            : /Users/imac/HandBrake/Wildlife.South.Africa.Part.3.Westkap.1080p.HD.m4v
Format                                   : MPEG-4
Codec ID                                 : M4V  (M4V /M4A /mp42/isom)
File size                                : 3.94 GiB
Duration                                 : 47mn 18s
Overall bit rate mode                    : Variable
Overall bit rate                         : 11.9 Mbps
Movie name                               : Wildlife South Africa: Westkap
Performer                                : Norbert Vander
Director                                 : Норберт Вандер
Producer                                 : Бенжамин Краузе / Петер Баатен
Production studio                        : KSM
Genre                                    : Documentary
ContentType                              : Short Film
Description                              : Протяжённость Южно-Африканского побережья 2786 км. С запада оно омывается Атлантическим океаном, с востока - Индийским. В середине находится мыс Доброй Надежды - кладбище кораблей. В этом \"повинны\" два течения - со стороны Атлантики холодное Benguela, а с Индийского океана - тёплое Agulahasstrom.
Recorded date                            : UTC 2012-01-01 08:00:00
Encoded date                             : UTC 2018-06-18 15:40:28
Tagged date                              : UTC 2018-06-18 15:42:32
Cover                                    : Yes
Rating                                   : None
Title/Sort                               : Wildlife South Africa: Westkap
LongDescription                          : Протяжённость Южно-Африканского побережья 2786 км. С запада оно омывается Атлантическим океаном, с востока - Индийским. В середине находится мыс Доброй Надежды - кладбище кораблей. В этом \"повинны\" два течения - со стороны Атлантики холодное Benguela, а с Индийского океана - тёплое Agulahasstrom. Эти условия создали неповторимую флору и фауну. В этом фильме показана природа Западного мыса (недалеко от мыса Доброй Надежды). Мы увидим китов, морских львов, пингвинов, подразним и заглянем в рот белой акулы. А также мы встретимся с большой белой акулой в районе острова Дайер, известном под названием Акулья аллея.
Vendor                                   : Apple:vendor_id:2012-756685
ContentRating                            : ru-movie|0+|000|

Video #1
ID                                       : 1
Format                                   : AVC
Format/Info                              : Advanced Video Codec
Format profile                           : [email protected]
Format settings                          : CABAC / 4 Ref Frames
Format settings, CABAC                   : Yes
Format settings, ReFrames                : 4 frames
Codec ID                                 : avc1
Codec ID/Info                            : Advanced Video Coding
Duration                                 : 47mn 18s
Source duration                          : 47mn 18s
Bit rate                                 : 10.5 Mbps
Width                                    : 1 920 pixels
Height                                   : 1 080 pixels
Display aspect ratio                     : 16:9
Frame rate mode                          : Variable
Frame rate                               : 23.976 (24000/1001) fps
Minimum frame rate                       : 23.974 fps
Maximum frame rate                       : 23.981 fps
Color space                              : YUV
Chroma subsampling                       : 4:2:0
Bit depth                                : 8 bits
Scan type                                : Progressive
Bits/(Pixel*Frame)                       : 0.211
Stream size                              : 3.47 GiB (88%)
Source stream size                       : 3.47 GiB (88%)
Title                                    : Main Program
Writing library                          : x264 core 155 r2893 b00bcaf
Encoding settings                        : cabac=1 / ref=4 / deblock=1:-2:-2 / analyse=0x3:0x133 / me=umh / subme=10 / psy=1 / psy_rd=1.00:0.15 / mixed_ref=1 / me_range=32 / chroma_me=1 / trellis=2 / 8x8dct=1 / cqm=0 / deadzone=21,11 / fast_pskip=1 / chroma_qp_offset=-3 / threads=34 / lookahead_threads=8 / sliced_threads=0 / nr=0 / decimate=0 / interlaced=0 / bluray_compat=0 / constrained_intra=0 / bframes=16 / b_pyramid=2 / b_adapt=2 / b_bias=0 / direct=3 / weightb=1 / open_gop=0 / weightp=2 / keyint=240 / keyint_min=24 / scenecut=40 / intra_refresh=0 / rc_lookahead=40 / rc=2pass / mbtree=1 / bitrate=10500 / ratetol=1.0 / qcomp=0.70 / qpmin=0 / qpmax=69 / qpstep=4 / cplxblur=20.0 / qblur=0.5 / ip_ratio=1.40 / aq=1:1.00
Language                                 : English
Encoded date                             : UTC 2018-06-18 15:40:28
Tagged date                              : UTC 2018-06-18 15:40:38
Color range                              : Limited
Color primaries                          : BT.709
Transfer characteristics                 : BT.709
Matrix coefficients                      : BT.709
Menus                                    : 6,7

Video #2
ID                                       : 7
Format                                   : JPEG
Codec ID                                 : jpeg
Duration                                 : 47mn 18s
Bit rate mode                            : Variable
Bit rate                                 : 1 220 bps
Width                                    : 640 pixels
Height                                   : 360 pixels
Display aspect ratio                     : 16:9
Frame rate mode                          : Variable
Frame rate                               : 0.003 fps
Minimum frame rate                       : 0.002 fps
Maximum frame rate                       : 0.003 fps
Color space                              : YUV
Chroma subsampling                       : 4:2:0
Bit depth                                : 8 bits
Compression mode                         : Lossy
Bits/(Pixel*Frame)                       : 1.765
Stream size                              : 397 KiB (0%)
Title                                    : Chapter Images
Language                                 : English
Default                                  : No
Encoded date                             : UTC 2018-06-18 15:40:44
Tagged date                              : UTC 2018-06-18 15:40:45
Menu For                                 : 1
ColorSpace_ICC                           : RGB

Audio #1
ID                                       : 2
Format                                   : AAC
Format/Info                              : Advanced Audio Codec
Format profile                           : LC
Codec ID                                 : mp4a-40-2
Duration                                 : 47mn 18s
Source duration                          : 47mn 18s
Bit rate mode                            : Variable
Bit rate                                 : 162 Kbps
Maximum bit rate                         : 226 Kbps
Channel(s)                               : 2 channels
Channel positions                        : Front: L R
Sampling rate                            : 48.0 KHz
Frame rate                               : 46.875 fps (1024 SPF)
Compression mode                         : Lossy
Stream size                              : 54.6 MiB (1%)
Source stream size                       : 54.6 MiB (1%)
Title                                    : Russian Stereo
Language                                 : Russian
Default                                  : Yes
Alternate group                          : 1
Encoded date                             : UTC 2018-06-18 15:40:28
Tagged date                              : UTC 2018-06-18 15:40:40
Fallback From                            : 4

Audio #2
ID                                       : 3
Format                                   : AAC
Format/Info                              : Advanced Audio Codec
Format profile                           : LC
Codec ID                                 : mp4a-40-2
Duration                                 : 47mn 18s
Source duration                          : 47mn 18s
Bit rate mode                            : Variable
Bit rate                                 : 161 Kbps
Maximum bit rate                         : 236 Kbps
Channel(s)                               : 2 channels
Channel positions                        : Front: L R
Sampling rate                            : 48.0 KHz
Frame rate                               : 46.875 fps (1024 SPF)
Compression mode                         : Lossy
Stream size                              : 54.5 MiB (1%)
Source stream size                       : 54.5 MiB (1%)
Title                                    : English Stereo
Language                                 : English
Default                                  : No
Alternate group                          : 1
Encoded date                             : UTC 2018-06-18 15:40:28
Tagged date                              : UTC 2018-06-18 15:40:40
Fallback From                            : 5

Audio #3
ID                                       : 4
Format                                   : AC-3
Format/Info                              : Audio Coding 3
Codec ID                                 : ac-3
Duration                                 : 47mn 18s
Bit rate mode                            : Constant
Bit rate                                 : 640 Kbps
Channel(s)                               : 6 channels
Channel positions                        : Front: L C R, Side: L R, LFE
Sampling rate                            : 48.0 KHz
Frame rate                               : 31.250 fps (1536 SPF)
Bit depth                                : 16 bits
Compression mode                         : Lossy
Stream size                              : 217 MiB (5%)
Title                                    : Russian DD 5.1
Language                                 : Russian
Service kind                             : Complete Main
Default                                  : Inherited From: 2
Alternate group                          : 1
Encoded date                             : UTC 2018-06-18 15:40:28
Tagged date                              : UTC 2018-06-18 15:40:32
Fallback To                              : 2

Audio #4
ID                                       : 5
Format                                   : AC-3
Format/Info                              : Audio Coding 3
Codec ID                                 : ac-3
Duration                                 : 47mn 18s
Bit rate mode                            : Constant
Bit rate                                 : 448 Kbps
Channel(s)                               : 6 channels
Channel positions                        : Front: L C R, Side: L R, LFE
Sampling rate                            : 48.0 KHz
Frame rate                               : 31.250 fps (1536 SPF)
Bit depth                                : 16 bits
Compression mode                         : Lossy
Stream size                              : 152 MiB (4%)
Title                                    : English DD 5.1
Language                                 : English
Service kind                             : Complete Main
Default                                  : No
Alternate group                          : 1
Encoded date                             : UTC 2018-06-18 15:40:28
Tagged date                              : UTC 2018-06-18 15:40:32
Fallback To                              : 3

Menu #1
00:00:00.000                             : Chapter 1
00:04:51.249                             : Chapter 2
00:11:41.075                             : Chapter 3
00:18:46.125                             : Chapter 4
00:23:38.459                             : Chapter 5
00:30:00.590                             : Chapter 6
00:34:48.044                             : Chapter 7
00:41:22.814                             : Chapter 8

Menu #2
ID                                       : 6
Codec ID                                 : text
Duration                                 : 47mn 18s
Language                                 : English
Encoded date                             : UTC 2018-06-18 15:40:40
Tagged date                              : UTC 2018-06-18 15:40:40
Bit rate mode                            : CBR
Menu For                                 : 1
00:00:00.000                             : Chapter 1
00:04:51.249                             : Chapter 2
00:11:41.075                             : Chapter 3
00:18:46.125                             : Chapter 4
00:23:38.459                             : Chapter 5
00:30:00.590                             : Chapter 6
00:34:48.044                             : Chapter 7
00:41:22.814                             : Chapter 8
x264 [info]: frame I:349   Avg QP:18.57  size:167220
x264 [info]: frame P:17849 Avg QP:21.13  size: 86850
x264 [info]: frame B:49849 Avg QP:22.66  size: 42443
x264 [info]: consecutive B-frames:  2.7%  7.9% 17.3% 25.4%  8.8% 35.6%  1.7%  0.2%  0.1%  0.1%  0.0%  0.0%  0.0%  0.0%  0.0%  0.0%  0.2%
x264 [info]: mb I  I16..4: 27.0% 41.9% 31.1%
x264 [info]: mb P  I16..4: 15.9% 32.6%  5.6%  P16..4: 26.7%  8.8%  4.5%  0.2%  0.1%    skip: 5.7%
x264 [info]: mb B  I16..4:  4.2%  6.8%  1.8%  B16..8: 45.7%  9.4%  1.4%  direct: 9.8%  skip:20.9%  L0:48.4% L1:42.3% BI: 9.3%
x264 [info]: 8x8 transform intra:57.1% inter:56.3%
x264 [info]: direct mvs  spatial:99.1% temporal:0.9%
x264 [info]: coded y,uvDC,uvAC intra: 64.5% 69.0% 16.7% inter: 34.0% 34.9% 5.0%
x264 [info]: i16 v,h,dc,p: 17% 29% 35% 19%
x264 [info]: i8 v,h,dc,ddl,ddr,vr,hd,vl,hu: 10% 27% 20%  5%  6%  5%  9%  6% 12%
x264 [info]: i4 v,h,dc,ddl,ddr,vr,hd,vl,hu: 13% 27% 16%  5%  7%  6%  9%  6% 12%
x264 [info]: i8c dc,h,v,p: 37% 38% 17%  7%
x264 [info]: Weighted P-Frames: Y:4.0% UV:2.8%
x264 [info]: ref P L0: 56.2% 12.2% 21.2%  9.8%  0.6%  0.0%
x264 [info]: ref B L0: 89.3%  8.5%  2.1%
x264 [info]: ref B L1: 98.1%  1.9%
x264 [info]: kb/s:10497.89

Релиз подготовлен для просмотра на Apple TV, iPad, iPhone, iPod Touch.
Для просмотра данного релиза на компьютере с ОС Windows рекомендуется использовать VLC media player

Трекер:  [ 18-Июн-2018 19:06 ]

  

Скачать .torrent

Размер .torrent файла 40 KB


Размер: 3.94 GB
Хэш (hash) релиза: af1fbfec0b866826677223bf049c69ea2bc8a28d

Еще никто не оставлял запись к записи скачать торрент [ATV3] Дикая Южная Африка Wildlife Südafrika . Будь первым!

!Обратная связь