Senjuushi | Secret Story 11 | Bill Clinton, James Patterson, Tig Notaro

Скачать через торрент Мишн Хилл Mission Hill Фильм бесплатно в хорошем качестве torrent

Скачивайте на UnionPeer.org фильмы через торрент без регистрации. Новинки кино в хорошем качестве через торрент. На UnionPeer.org можно скачать через торрент фильмы 2014 и 2015 годов. Самые новые фильмы.

Скачать торрент Мишн Хилл Mission Hill бесплатно через .torrent фильм мультфильм сериал

Статистика раздачи
Размер:  11.68 GB   |    Зарегистрирован:  1 месяц 3 дня   |    .torrent скачан:  17 раз   |   
Раздают:  1  
   
загрузка...
 
Автор Сообщение

Galfimbul

avatar Galfimbul


Мишн Хилл | Mission Hill
Страна: США
Жанр: мультфильм, ситком
Сезон (количество): 1
Серии (количество): 1-13 (13)
Продолжительность: 21-23 мин.
Выпуск: c 24 сентября 1999 года — 14 июля 2002 года
Перевод: Профессиональный (многоголосый закадровый 2x2)
Режиссёр: Лорен МакМаллэн, Майк Ким, Кристиан Роман
Описание:«Мишн Хилл» (англ. Mission Hill, ранее известный как «The Downtowners») — американский мультипликационный сериал, впервые вышедший в эфир в 1999 году в телесети The WB Television Network. Хотя планировались 18 эпизодов, но выпущено было лишь 13 и показ сериала был отменён после трансляции 6 из них. После выхода в эфир первых двух эпизодов телесетью был сделан перерыв в их регулярных показах из-за низкого рейтинга мультсериала. Летом 2000 года сериал продолжили показывать, но после дополнительно 4 эпизодов он был снят с показа. Сериал смог стать культовым благодаря повтору всех 13 эпизодов телеканалом Teletoon в блоке «Teletoon Unleashed», программном блоке позднего ночного телевещания телеканалов Cartoon Network, Adult Swim и в блоке Too Funny To Sleep ночного вещания телеканала TBS. Мультсериал ранее был известен как «The Downtowners» и его переименованию поспособствовал выпускаемый MTV другой сериал с названием «Downtown».
Качество: DVDRemux
Контейнер: mkv
Видео: 720x480, 5000 Кбит/сек, битовая глубина 8 бит, 29,970 кадр/сек
Аудио:
1. Русский (перевод 2x2), 192 Кбит/сек, 48 КГц, 2 кан, AC3
2. Английский, 192 Кбит/сек, 48 КГц, 2 кан, AC3
Субтитры: английские, французские, испанские
General

Общее
Уникальный идентификатор : 167633761815863448386457020882986613850 (0x7E1D1691777644A0590E72B4ED223C5A)
Полное имя : D:\Ремуксы\[AORE] Mission Hill\1. Pilot (The Douchebag Aspect).mkv
Формат : Matroska
Версия формата : Version 4 / Version 2
Размер файла : 903 Мбайт
Продолжительность : 22 м. 36 с.
Режим общего битрейта : Переменный
Общий поток : 5587 Кбит/сек
Название фильма : MISSION HILL THE COMPLETE SERIES DISC 1
Дата кодирования : UTC 2018-06-14 09:57:10
Программа кодирования : mkvmerge v23.0.0 ('The Bride Said No') 64-bit
Библиотека кодирования : libebml v1.3.6 + libmatroska v1.4.9

Видео
Идентификатор : 1
Формат : MPEG Video
Версия формата : Version 2
Профиль формата : [email protected]
Настройки формата : CustomMatrix / BVOP
Параметр BVOP формата : Да
Параметр матрицы формата : Выборочная
Параметр GOP формата : Variable
Структура изображения : Frame
Идентификатор кодека : V_MPEG2
Идентификатор кодека/Информация : MPEG 1 or 2 Video
Продолжительность : 22 м. 36 с.
Вид битрейта : Переменный
Битрейт : 5000 Кбит/сек
Максимальный битрейт : 9800 Кбит/сек
Ширина : 720 пикселей
Высота : 480 пикселей
Соотношение сторон : 4:3
Режим частоты кадров : Постоянный
Частота кадров : 29,970 (30000/1001) кадров/сек
Стандарт вещания : NTSC
Цветовое пространство : YUV
Субдискретизация насыщенности : 4:2:0
Битовая глубина : 8 бит
Тип развёртки : Чересстрочная
Порядок развёртки : Верхнее поле первое
Метод сжатия : С потерями
Бит/(Пиксели*Кадры) : 0.483
Временной код первого кадра : 00:59:59:00
Оригинал временного кода : Group of pictures header
Размер потока : 808 Мбайт (89%)
Язык : English
Default : Нет
Forced : Нет

Аудио #1
Идентификатор : 2
Формат : AC-3
Формат/Информация : Audio Coding 3
Идентификатор кодека : A_AC3
Продолжительность : 22 м. 36 с.
Вид битрейта : Постоянный
Битрейт : 192 Кбит/сек
Каналы : 2 канала
Расположение каналов : Front: L R
Частота : 48,0 КГц
Частота кадров : 31,250 кадров/сек (1536 SPF)
Битовая глубина : 16 бит
Метод сжатия : С потерями
Размер потока : 31,0 Мбайт (3%)
Язык : Russian
ServiceKind/String : Complete Main
Default : Да
Forced : Нет

Аудио #2
Идентификатор : 3
Формат : AC-3
Формат/Информация : Audio Coding 3
Идентификатор кодека : A_AC3
Продолжительность : 22 м. 36 с.
Вид битрейта : Постоянный
Битрейт : 192 Кбит/сек
Каналы : 2 канала
Расположение каналов : Front: L R
Частота : 48,0 КГц
Частота кадров : 31,250 кадров/сек (1536 SPF)
Битовая глубина : 16 бит
Метод сжатия : С потерями
Размер потока : 31,0 Мбайт (3%)
Язык : English
ServiceKind/String : Complete Main
Default : Нет
Forced : Нет

Аудио #3
Идентификатор : 4
Формат : AC-3
Формат/Информация : Audio Coding 3
Идентификатор кодека : A_AC3
Продолжительность : 22 м. 36 с.
Вид битрейта : Постоянный
Битрейт : 192 Кбит/сек
Каналы : 2 канала
Расположение каналов : Front: L R
Частота : 48,0 КГц
Частота кадров : 31,250 кадров/сек (1536 SPF)
Битовая глубина : 16 бит
Метод сжатия : С потерями
Размер потока : 31,0 Мбайт (3%)
Заголовок : Commentary
Язык : English
ServiceKind/String : Complete Main
Default : Нет
Forced : Нет

Текст #1
Идентификатор : 5
Формат : VobSub
Режим смешивания : zlib
Идентификатор кодека : S_VOBSUB
Идентификатор кодека/Информация : Picture based subtitle format used on DVDs
Продолжительность : 21 м. 42 с.
Битрейт : 5885 бит/сек
ElementCount : 353
Размер потока : 936 Кбайт (0%)
Язык : English
Default : Да
Forced : Нет

Текст #2
Идентификатор : 6
Формат : VobSub
Режим смешивания : zlib
Идентификатор кодека : S_VOBSUB
Идентификатор кодека/Информация : Picture based subtitle format used on DVDs
Продолжительность : 21 м. 49 с.
Битрейт : 5614 бит/сек
ElementCount : 358
Размер потока : 897 Кбайт (0%)
Язык : French
Default : Нет
Forced : Нет

Текст #3
Идентификатор : 7
Формат : VobSub
Режим смешивания : zlib
Идентификатор кодека : S_VOBSUB
Идентификатор кодека/Информация : Picture based subtitle format used on DVDs
Продолжительность : 22 м. 29 с.
Битрейт : 5696 бит/сек
ElementCount : 362
Размер потока : 938 Кбайт (0%)
Язык : Spanish
Default : Нет
Forced : Нет

Меню
00:00:00.000 : en:Chapter 01
00:07:22.909 : en:Chapter 02
00:14:16.722 : en:Chapter 03
00:21:55.881 : en:Chapter 04

1. Pilot (The Douchebag Aspect)
2. Andy Joins the PTA (or Great Sexpectations)
3. Kevin's Problem (or Porno for Pyro)
4. Andy Vs. The Real World (or The Big-Ass Viacom Lawsuit)
5. Andy and Kevin Make a Friend (or One Bang for Two Brothers)
6. Andy Gets a Promotion (or How to Get Head in Business Without Really Trying)
7. Kevin Vs. the SAT (or Nocturnal Admissions)
8. Unemployment Part 1 (or Brother's Big Boner)
9. Unemployment Part 2 (or Theory of the Leisure Ass)
10. Kevin Finds Love (or Hot for Weirdie)
11. Stories of Hope and Forgiveness (or Day of the Jackass)
12. Happy Birthday, Kevin (or Happy Birthday, Douchebag)
13. Plan 9 from Mission Hill (Or I Married a Gay Man from Outer Space)
1. Andy the Cartoonist
2. Hot Pants
3. The Graffiti & Billboards
4. Pencil Vs. Animation
5. From Concepts to Animation
6. Mouth Tests
7. Health Class Posters of Pomper High
8. Production Credits
9. Neighbors, Friends and Locals of Mission Hill
10. Radiant Color
11. Still Gallery of Voice Talent
Было показано 13 эпизодов мультсериала, тогда как написано на 4 больше, но их съёмка не была завершена. Анимация некоторых из этих эпизодов ещё делалась, когда показ сериала был отменён. Планировалось включить эту анимацию в состав сериала на DVD, но это не вышло. Тем не менее, посредством Интернета получили распространение несколько рисованных мультипликаций, в том числе полное анимированное видео с синхронным текстом эпизода «Pretty in Pink (Crap Gets in Your Eyes)».

«Mission Hill» заслужил премию Pulcinella 2000 года в номинации «лучшему сериалу для любой аудитории»; цитируя вручение премии, было сказано: «стильный дизайн и целомудренный подход к вопросам секса и морали».

Сериал заслужил премию альянса геев и лесбиянок против диффамации за положительный образ гомосекуальных связей.
Информация о проекте:

Проект задумывался с целью собрать сериал в отличном качестве, в наиболее удобном контейнере MKV с сохранением качества, без малейшего пережатия. За основу были взяты оригинальные диски. В седьмой серии на место без перевода были сделаны субтитры.

Трекер:  [ 17-Июн-2018 16:24 ]

  

Скачать .torrent

Размер .torrent файла 61 KB


Размер: 11.68 GB
Хэш (hash) релиза: f26ddbc825c5b152b484d49a6c10a119a759142c
Подписка на обновления:

Еще никто не оставлял запись к записи скачать торрент Мишн Хилл Mission Hill . Будь первым!

!Обратная связь