Episode 4 | Sarah Snook | 24 more rapidgator, uploadgig, nitroflare links

Скачать через торрент [iPad] Тренер бесплатно русская версия torrent активатор

Статистика раздачи
Размер:  2.15 GB   |    Зарегистрирован:  1 месяц 4 дня   |    .torrent скачан:  75 раз   |   
Раздают:  1  
   
загрузка...
 
Автор Сообщение

Galfimbul

avatar Galfimbul


Тренер
-

6.967 / 10 6.50 / 10
Год выпуска: 2018
Страна: Россия
Жанр: Драма, спорт
Продолжительность: 02:12:22

Перевод: (Не требуется)
Оригинальная аудиодорожка: Есть
Cубтитры: Нет
Режиссёр: Данила Козловский
Сценарий: Данила Козловский, Андрей Золотарев, Сергей Четверухин
Продюсер: Данила Козловский, Петр Ануров, Леонид Верещагин
Оператор: Федор Лясс
Художник: Сергей Агин, Варя Авдюшко
Монтаж: Мария Лихачева
В ролях: Данила Козловский, Владимир Ильин, Андрей Смоляков, Ольга Зуева, Ирина Горбачева, Виктор Вержбицкий, Мария Лобанова, Павел Ворожцов, Игорь Гордин, Александр Ильин мл.

Сборы в России: $13 993 287

Мировая премьера: 20 апреля 2018
Премьера (РФ): 19 апреля 2018, «Централ Партнершип»

Цифровой релиз: 14 июня 2018, «Централ Партнершип»

Описание: Футболист национальной сборной Юрий Столешников в ответственный момент не забивает пенальти. После досадной ошибки Столешников покидает сборную, завершает карьеру и становится тренером маленькой провинциальной команды. Именно с этим клубом Столешникову предстоит совершить чудо и вновь поверить в себя.
Качество исходника: WEB-DL 1080p-BLUEBIRD
Качество: WEB-DLRip
Тип: SD (576p)
Контейнер: M4V
Видео: H.264, 1024x432, 2.40:1, 2 200 Kbps, 23.813 fps

Аудио: Русский/Оригинальная дорожка, AAC / 2.0 / 128 Kbps / 48.0 KHz
Sort Name: Тренер
XID: Apple:vendor_id:2018-981230
contentID: 1389469173
Copyright: © 2018 ООО «Киностудия «Слово», ООО «ДК интертеймент», ООО «Студия «ТРИТЭ» Никиты Михалкова»
Screenwriters: Данила Козловский, Андрей Золотарев, Сергей Четверухин
Producers: Данила Козловский, Петр Ануров, Леонид Верещагин
Director: Данила Козловский
Cast: Данила Козловский, Владимир Ильин, Андрей Смоляков, Ольга Зуева, Ирина Горбачёва, Виктор Вержбицкий, Мария Лобанова, Павел Ворожцов, Игорь Гордин, Александр Ильин
Studio: ДК интертеймент, Кинослово, Студия Тритэ
Rating: 134
Long Description: Футболист национальной сборной Юрий Столешников в ответственный момент не забивает пенальти. После досадной ошибки Столешников покидает сборную, завершает карьеру и становится тренером маленькой провинциальной команды. Именно с этим клубом Столешникову предстоит совершить чудо и вновь поверить в себя.
Description: Футболист национальной сборной Юрий Столешников в ответственный момент не забивает пенальти. После досадной ошибки Столешников покидает сборную, завершает карьеру и становится тренером маленькой провинциальной команды.
Release Date: 2018-04-19T07:00:00Z
Genre: Драма
Artist: Danila Kozlovskiy
Name: Тренер
General
Complete name : /Users/imac/HandBrake/Trener.(SD).(pk).m4v
Format : MPEG-4
Codec ID : M4V
File size : 2.15 GiB
Duration : 2h 12mn
Overall bit rate mode : Variable
Overall bit rate : 2 330 Kbps
Movie name : Тренер
Performer : Danila Kozlovskiy
Director : Данила Козловский
Actor : Данила Козловский / Владимир Ильин / Андрей Смоляков / Ольга Зуева / Ирина Горбачёва / Виктор Вержбицкий / Мария Лобанова / Павел Ворожцов / Игорь Гордин / Александр Ильин
Screenplay by : Данила Козловский / Андрей Золотарев / Сергей Четверухин
Producer : Данила Козловский / Петр Ануров / Леонид Верещагин
Production studio : ДК интертеймент, Кинослово, Студия Тритэ
Genre : Драма
ContentType : Short Film
Description : Футболист национальной сборной Юрий Столешников в ответственный момент не забивает пенальти. После досадной ошибки Столешников покидает сборную, завершает карьеру и становится тренером маленькой провинциальной команды.
Recorded date : UTC 2018-04-19 07:00:00
Encoded date : UTC 2018-06-16 22:53:56
Tagged date : UTC 2018-06-16 22:54:31
Copyright : © 2018 ООО «Киностудия «Слово», ООО «ДК интертеймент», ООО «Студия «ТРИТЭ» Никиты Михалкова»
Cover : Yes
Rating : None
Title/Sort : Тренер
LongDescription : Футболист национальной сборной Юрий Столешников в ответственный момент не забивает пенальти. После досадной ошибки Столешников покидает сборную, завершает карьеру и становится тренером маленькой провинциальной команды. Именно с этим клубом Столешникову предстоит совершить чудо и вновь поверить в себя.
AppleStoreCatalogID : 1389469173
Vendor : Apple:vendor_id:2018-981230
ContentRating : ru-movie|12+|200|

Video #1
ID : 1
Format : AVC
Format/Info : Advanced Video Codec
Format profile : [email protected]
Format settings, CABAC : Yes
Format settings, ReFrames : 9 frames
Codec ID : avc1
Codec ID/Info : Advanced Video Coding
Duration : 2h 12mn
Source duration : 2h 12mn
Bit rate : 2 200 Kbps
Width : 1 024 pixels
Height : 432 pixels
Display aspect ratio : 2.40:1
Frame rate mode : Variable
Frame rate : 23.813 fps
Minimum frame rate : 18.152 fps
Maximum frame rate : 23.981 fps
Color space : YUV
Chroma subsampling : 4:2:0
Bit depth : 8 bits
Scan type : Progressive
Bits/(Pixel*Frame) : 0.209
Stream size : 2.03 GiB (94%)
Source stream size : 2.03 GiB (94%)
Title : Main Program
Writing library : x264 core 155 r2893 b00bcaf
Encoding settings : cabac=1 / ref=9 / deblock=1:0:0 / analyse=0x3:0x113 / me=umh / subme=9 / psy=1 / psy_rd=1.00:0.00 / mixed_ref=1 / me_range=32 / chroma_me=1 / trellis=1 / 8x8dct=1 / cqm=0 / deadzone=21,11 / fast_pskip=1 / chroma_qp_offset=-2 / threads=13 / lookahead_threads=1 / sliced_threads=0 / nr=0 / decimate=1 / interlaced=0 / bluray_compat=0 / constrained_intra=0 / bframes=6 / b_pyramid=2 / b_adapt=2 / b_bias=0 / direct=1 / weightb=1 / open_gop=0 / weightp=2 / keyint=240 / keyint_min=24 / scenecut=40 / intra_refresh=0 / rc_lookahead=40 / rc=2pass / mbtree=1 / bitrate=2200 / ratetol=1.0 / qcomp=0.60 / qpmin=0 / qpmax=69 / qpstep=4 / cplxblur=20.0 / qblur=0.5 / ip_ratio=1.40 / aq=1:1.00
Language : Russian
Encoded date : UTC 2018-06-16 22:53:56
Tagged date : UTC 2018-06-16 22:54:02
Color range : Limited
Color primaries : BT.709
Transfer characteristics : BT.709
Matrix coefficients : BT.709

Video #2
ID : 4
Format : JPEG
Codec ID : jpeg
Duration : 2h 12mn
Bit rate mode : Variable
Bit rate : 736 bps
Width : 640 pixels
Height : 270 pixels
Display aspect ratio : 2.40:1
Frame rate mode : Variable
Frame rate : 0.003 fps
Minimum frame rate : 0.001 fps
Maximum frame rate : 0.004 fps
Color space : YUV
Chroma subsampling : 4:2:0
Bit depth : 8 bits
Compression mode : Lossy
Bits/(Pixel*Frame) : 1.420
Stream size : 599 KiB (0%)
Title : Chapter Images
Language : Russian
Encoded date : UTC 2018-06-16 22:54:10
Tagged date : UTC 2018-06-16 22:54:10

Audio
ID : 2
Format : AAC
Format/Info : Advanced Audio Codec
Format profile : LC
Codec ID : 40
Duration : 2h 12mn
Source duration : 2h 12mn
Bit rate mode : Variable
Bit rate : 126 Kbps
Maximum bit rate : 188 Kbps
Channel(s) : 2 channels
Channel positions : Front: L R
Sampling rate : 48.0 KHz
Compression mode : Lossy
Stream size : 119 MiB (5%)
Source stream size : 119 MiB (5%)
Title : Russian Stereo
Language : Russian
Encoded date : UTC 2018-06-16 22:53:56
Tagged date : UTC 2018-06-16 22:54:06

Menu #1
00:00:00.000 : Глава 1
00:07:17.200 : Глава 2
00:13:05.320 : Глава 3
00:18:35.600 : Глава 4
00:24:13.640 : Глава 5
00:30:04.160 : Глава 6
00:35:46.720 : Глава 7
00:44:29.440 : Глава 8
00:48:58.000 : Глава 9
00:55:35.480 : Глава 10
01:00:44.560 : Глава 11
01:06:40.880 : Глава 12
01:12:00.680 : Глава 13
01:18:41.800 : Глава 14
01:23:26.960 : Глава 15
01:30:37.200 : Глава 16
01:37:07.720 : Глава 17
01:42:34.679 : Глава 18
01:50:35.840 : Глава 19
01:56:52.320 : Глава 20

Menu #2
ID : 3
Codec ID : text
Duration : 2h 12mn
Language : Russian
Encoded date : UTC 2018-06-16 22:54:06
Tagged date : UTC 2018-06-16 22:54:06
00:00:00.000 : Глава 1
00:07:17.200 : Глава 2
00:13:05.320 : Глава 3
00:18:35.600 : Глава 4
00:24:13.640 : Глава 5
00:30:04.160 : Глава 6
00:35:46.720 : Глава 7
00:44:29.440 : Глава 8
00:48:58.000 : Глава 9
00:55:35.480 : Глава 10
01:00:44.560 : Глава 11
01:06:40.880 : Глава 12
01:12:00.680 : Глава 13
01:18:41.800 : Глава 14
01:23:26.960 : Глава 15
01:30:37.200 : Глава 16
01:37:07.720 : Глава 17
01:42:34.679 : Глава 18
01:50:35.840 : Глава 19
01:56:52.320 : Глава 20
Bit rate mode : VBR
x264 [info]: frame I:1886  Avg QP:14.70  size: 56327
x264 [info]: frame P:61247 Avg QP:18.20  size: 19443
x264 [info]: frame B:126006 Avg QP:19.94  size:  7028
x264 [info]: consecutive B-frames:  8.2%  9.7% 14.8% 45.2% 13.8%  6.0%  2.3%
x264 [info]: mb I  I16..4: 11.1% 62.9% 25.9%
x264 [info]: mb P  I16..4:  2.8% 15.1%  4.1%  P16..4: 34.9% 23.2% 11.8%  0.0%  0.0%    skip: 8.3%
x264 [info]: mb B  I16..4:  0.3%  1.9%  0.8%  B16..8: 38.9% 11.3%  3.4%  direct: 4.8%  skip:38.6%  L0:41.8% L1:45.7% BI:12.5%
x264 [info]: 8x8 transform intra:67.4% inter:70.9%
x264 [info]: coded y,uvDC,uvAC intra: 81.6% 86.0% 60.6% inter: 27.2% 23.6% 4.6%
x264 [info]: i16 v,h,dc,p: 16% 17%  5% 62%
x264 [info]: i8 v,h,dc,ddl,ddr,vr,hd,vl,hu: 11% 12%  4%  8% 12% 13% 14% 12% 14%
x264 [info]: i4 v,h,dc,ddl,ddr,vr,hd,vl,hu: 10% 11%  3%  8% 14% 14% 15% 11% 14%
x264 [info]: i8c dc,h,v,p: 35% 26% 20% 19%
x264 [info]: Weighted P-Frames: Y:2.0% UV:1.0%
x264 [info]: ref P L0: 59.1% 12.2% 12.4%  4.9%  3.5%  2.7%  2.2%  1.4%  1.3%  0.2%  0.0%
x264 [info]: ref B L0: 83.9%  7.9%  3.5%  1.6%  1.2%  1.0%  0.7%  0.2%
x264 [info]: ref B L1: 97.0%  3.0%
x264 [info]: kb/s:2198.44

Релиз подготовлен для просмотра на Apple TV, iPad, iPhone, iPod Touch.
Для просмотра данного релиза на компьютере с ОС Windows рекомендуется использовать VLC media player

Трекер:  [ 17-Июн-2018 02:06 ]

  

Скачать .torrent

Размер .torrent файла 22 KB


Размер: 2.15 GB
Хэш (hash) релиза: 97ff7909d54f3bffa15f384c7fe4e7397047fa4f

Торренты, похожие на [iPad] Тренер скачать торрент

Форум Название Автор Размер S L Добавлен
Видео (iPhone/iPod Touch/iPad) ·· [iPad] Тренер / McFarland, USA (Ники Каро / Niki Caro ) [2015, США, Драма, спорт, BDRip, SD (576p)] MVO + Original + sub (rus, eng) Galfimbul 24373474432.27 GB 0 0 1434643216

19:00

18-Июн-15

Видео (iPhone/iPod Touch/iPad) ·· [iPad] Тренер Картер / Coach Carter (Томас Картер / Thomas Carter) [2005, драма, спорт, BDRip, 576p] MVO, Original, Sub Rus Galfimbul 29970814522.79 GB 0 0 1420406387

00:19

5-Янв-15

Еще никто не оставлял запись к записи скачать торрент [iPad] Тренер . Будь первым!

!Обратная связь