Carlo Sciortino | HD The Boss Baby (2017) | Жизнь / Vida [01х01-05 из 10] (2018) WEB-DLRip | Jaskier 41 minutes

Скачать через торрент Дудлез Doodlez Фильм бесплатно в хорошем качестве torrent

Скачивайте на UnionPeer.org фильмы через торрент без регистрации. Новинки кино в хорошем качестве через торрент. На UnionPeer.org можно скачать через торрент фильмы 2014 и 2015 годов. Самые новые фильмы.

Скачать торрент Дудлез Doodlez бесплатно через .torrent фильм мультфильм сериал

Статистика раздачи
Размер:  44 MB   |    Зарегистрирован:  1 месяц   |    .torrent скачан:  32 раза   |   
Раздают:  1  
   
загрузка...
 
Автор Сообщение

Galfimbul

avatar Galfimbul


Дудлез / Doodlez

Страна: Канада
Жанр: мультфильм,короткометражка
Продолжительность серии: 2-3 минут
Год выпуска: 2001-2004
Перевод: Отсутствует
Русские субтитры: нет

Режиссёр: D. Campbell MacKinlay
Роли озвучивали: Нет

Описание: про незадачливого нарисованного героя, на голову которого постоянно сыплются разнообразные неприятности.

Список серий:
20
39
40
43

Качество: WEB-DL
Формат: MP4
Видео: V: h264 main L3.0, yuv420p, 640x480, 612 kb/s
Аудио: acc lc, 44100 Hz, stereo, 125 kb/s)
Субтитры: нет
ОбщееПолное имя : D:\Фильмы\Мультфильмы\Doodlez 20,39,40,43\Doodlez.torrentРазмер файла : 14,1 Кбайт

ОбщееПолное имя : D:\Фильмы\Мультфильмы\Doodlez 20,39,40,43\№20.mp4Формат : MPEG-4Профиль формата : Base MediaИдентификатор кодека : isom (isom/iso2/avc1/mp41)Размер файла : 11,4 МбайтПродолжительность : 2 м. 7 с.Общий поток : 746 Кбит/секПрограмма кодирования : Lavf57.2.100

ВидеоИдентификатор : 1Формат : AVCФормат/Информация : Advanced Video CodecПрофиль формата : [email protected]Настройки формата : CABAC / 3 Ref FramesПараметр CABAC формата : ДаПараметр RefFrames формата : 3 кадраИдентификатор кодека : avc1Идентификатор кодека/Информация : Advanced Video CodingПродолжительность : 2 м. 7 с.Битрейт : 613 Кбит/секШирина : 640 пикселейВысота : 480 пикселейСоотношение сторон : 4:3Режим частоты кадров : ПостоянныйЧастота кадров : 30,000 кадров/секЦветовое пространство : YUVСубдискретизация насыщенности : 4:2:0Битовая глубина : 8 битТип развёртки : ПрогрессивнаяБит/(Пиксели*Кадры) : 0.066Размер потока : 9,33 Мбайт (82%)

АудиоИдентификатор : 2Формат : AACФормат/Информация : Advanced Audio CodecПрофиль формата : LCИдентификатор кодека : mp4a-40-2Продолжительность : 2 м. 7 с.Вид битрейта : ПостоянныйБитрейт : 126 Кбит/секКаналы : 2 каналаРасположение каналов : Front: L RЧастота : 44,1 КГцЧастота кадров : 43,066 кадра/сек (1024 SPF)Метод сжатия : С потерямиРазмер потока : 1,91 Мбайт (17%)Default : ДаAlternateGroup/String : 1

ОбщееПолное имя : D:\Фильмы\Мультфильмы\Doodlez 20,39,40,43\№39.mp4Формат : MPEG-4Профиль формата : Base MediaИдентификатор кодека : isom (isom/iso2/avc1/mp41)Размер файла : 11,4 МбайтПродолжительность : 2 м. 7 с.Общий поток : 750 Кбит/секПрограмма кодирования : Lavf57.2.100

ВидеоИдентификатор : 1Формат : AVCФормат/Информация : Advanced Video CodecПрофиль формата : [email protected]Настройки формата : CABAC / 3 Ref FramesПараметр CABAC формата : ДаПараметр RefFrames формата : 3 кадраИдентификатор кодека : avc1Идентификатор кодека/Информация : Advanced Video CodingПродолжительность : 2 м. 7 с.Битрейт : 617 Кбит/секШирина : 640 пикселейВысота : 480 пикселейСоотношение сторон : 4:3Режим частоты кадров : ПостоянныйЧастота кадров : 30,000 кадров/секЦветовое пространство : YUVСубдискретизация насыщенности : 4:2:0Битовая глубина : 8 битТип развёртки : ПрогрессивнаяБит/(Пиксели*Кадры) : 0.067Размер потока : 9,38 Мбайт (82%)

АудиоИдентификатор : 2Формат : AACФормат/Информация : Advanced Audio CodecПрофиль формата : LCИдентификатор кодека : mp4a-40-2Продолжительность : 2 м. 7 с.Вид битрейта : ПостоянныйБитрейт : 126 Кбит/секКаналы : 2 каналаРасположение каналов : Front: L RЧастота : 44,1 КГцЧастота кадров : 43,066 кадра/сек (1024 SPF)Метод сжатия : С потерямиРазмер потока : 1,91 Мбайт (17%)Default : ДаAlternateGroup/String : 1

ОбщееПолное имя : D:\Фильмы\Мультфильмы\Doodlez 20,39,40,43\№40.mp4Формат : MPEG-4Профиль формата : Base MediaИдентификатор кодека : isom (isom/iso2/avc1/mp41)Размер файла : 11,4 МбайтПродолжительность : 2 м. 7 с.Общий поток : 748 Кбит/секПрограмма кодирования : Lavf57.2.100

ВидеоИдентификатор : 1Формат : AVCФормат/Информация : Advanced Video CodecПрофиль формата : [email protected]Настройки формата : CABAC / 3 Ref FramesПараметр CABAC формата : ДаПараметр RefFrames формата : 3 кадраИдентификатор кодека : avc1Идентификатор кодека/Информация : Advanced Video CodingПродолжительность : 2 м. 7 с.Битрейт : 615 Кбит/секШирина : 640 пикселейВысота : 480 пикселейСоотношение сторон : 4:3Режим частоты кадров : ПеременныйЧастота кадров : 30,000 кадров/секМинимальная частота кадров : 30,000 кадров/секМаксимальная частота кадров : 3000,000 кадров/секЦветовое пространство : YUVСубдискретизация насыщенности : 4:2:0Битовая глубина : 8 битТип развёртки : ПрогрессивнаяБит/(Пиксели*Кадры) : 0.067Размер потока : 9,37 Мбайт (82%)

АудиоИдентификатор : 2Формат : AACФормат/Информация : Advanced Audio CodecПрофиль формата : LCИдентификатор кодека : mp4a-40-2Продолжительность : 2 м. 7 с.Вид битрейта : ПостоянныйБитрейт : 126 Кбит/секКаналы : 2 каналаРасположение каналов : Front: L RЧастота : 44,1 КГцЧастота кадров : 43,066 кадра/сек (1024 SPF)Метод сжатия : С потерямиРазмер потока : 1,91 Мбайт (17%)Default : ДаAlternateGroup/String : 1

ОбщееПолное имя : D:\Фильмы\Мультфильмы\Doodlez 20,39,40,43\№43.mp4Формат : MPEG-4Профиль формата : Base MediaИдентификатор кодека : isom (isom/iso2/avc1/mp41)Размер файла : 9,33 МбайтПродолжительность : 2 м. 7 с.Общий поток : 612 Кбит/секПрограмма кодирования : Lavf57.2.100

ВидеоИдентификатор : 1Формат : AVCФормат/Информация : Advanced Video CodecПрофиль формата : [email protected]Настройки формата : CABAC / 3 Ref FramesПараметр CABAC формата : ДаПараметр RefFrames формата : 3 кадраИдентификатор кодека : avc1Идентификатор кодека/Информация : Advanced Video CodingПродолжительность : 2 м. 7 с.Битрейт : 479 Кбит/секШирина : 640 пикселейВысота : 480 пикселейСоотношение сторон : 4:3Режим частоты кадров : ПостоянныйЧастота кадров : 30,000 кадров/секЦветовое пространство : YUVСубдискретизация насыщенности : 4:2:0Битовая глубина : 8 битТип развёртки : ПрогрессивнаяБит/(Пиксели*Кадры) : 0.052Размер потока : 7,29 Мбайт (78%)

АудиоИдентификатор : 2Формат : AACФормат/Информация : Advanced Audio CodecПрофиль формата : LCИдентификатор кодека : mp4a-40-2Продолжительность : 2 м. 7 с.Вид битрейта : ПостоянныйБитрейт : 126 Кбит/секКаналы : 2 каналаРасположение каналов : Front: L RЧастота : 44,1 КГцЧастота кадров : 43,066 кадра/сек (1024 SPF)Метод сжатия : С потерямиРазмер потока : 1,91 Мбайт (21%)Default : ДаAlternateGroup/String : 1
Предыдущие и альтернативные раздачи

Трекер:  [ 16-Июн-2018 21:24 ]

  

Скачать .torrent

Размер .torrent файла 14 KB


Размер: 44 MB
Хэш (hash) релиза: 2447052c3c3990e6c539a193e08f173b989a2ac5
Подписка на обновления:

Еще никто не оставлял запись к записи скачать торрент Дудлез Doodlez . Будь первым!

!Обратная связь