Скачать | Locke & Key | OO DiskRecovery Pro + Admin + Tech Edition 12 0 65 + C...

Скачать через торрент Спецагент Арчер Archer Фильм бесплатно в хорошем качестве torrent

Скачивайте на UnionPeer.org фильмы через торрент без регистрации. Новинки кино в хорошем качестве через торрент. На UnionPeer.org можно скачать через торрент фильмы 2014 и 2015 годов. Самые новые фильмы.

Скачать торрент Спецагент Арчер Archer бесплатно через .torrent фильм мультфильм сериал

Статистика раздачи
Размер:  3.78 GB   |    Зарегистрирован:  1 месяц 4 дня   |    .torrent скачан:  34 раза   |   
Раздают:  1  
   
загрузка...
 
Автор Сообщение

Galfimbul

avatar Galfimbul


Спецагент Арчер
Archer
Сезон 9
Серии: 1-6 из 8
Страна: США
Производство: FX Network
Жанр: шпионская комедия
Продолжительность: ~00:20:00
Года выпуска: 2018
Перевод:

Профессиональный (многоголосый закадровый) | Студия Кубик в Кубе & БЯКО Рекордс
Оригинальная звуковая дорожка (English)

Русские субтитры: есть
Английские субтитры: есть
Режиссёр: Адам Рид / Adam Reed
Действие анимационной комедии Archer разворачивается в международном шпионском агентстве ИНМБ, в котором глобальные кризисы – всего лишь возможность для суперподготовленных агентов посоревноваться между собой, используя при этом обман, предательство и другие гадостные приемчики. Главным героем сериала является самый опасный в мире шпион - Стерлинг Арчер, известный своим пристрастием к женщинам и выпивке, а также невероятной самовлюблённостью и не слишком мужественным позывным "Герцогиня". На службе Арчеру приходится мириться со своей эксцентричной мамашей Мэлори, бывшей подружкой Ланой, озабоченной секретаршей Шерил и другими обитателями самого ужасного шпионского агентства в мире

Все раздачи мультсериала
Качество: WEB-DL 720p
Формат: MKV
Видео: 1280x720 (16:9) at 23.976 fps, [email protected], ~4000 kbps avg, ~0.178bpp
Аудио:

Russian: 48 kHz, AC3 Dolby Digital, 5.1 ch, ~384 kbps | Студия Кубик в Кубе & БЯКО Рекордс [без рекламы]
English: 48 kHz, AC3 Dolby Digital, 5.1 ch, ~384 kbps

Субтитры: Russian (*.srt), English (*.srt)
GeneralUnique ID : 237395910738424929909430217093525679497 (0xB298CA10A77236C746555136049A2D89)Complete name : \Archer - Season 09\Archer.s09e02.Danger.Island.Disheartening.Situation.720p.WEB-DL.h264.AC3.MVO.Eng.mkvFormat : MatroskaFormat version : Version 4 / Version 2File size : 705 MiBDuration : 21 min 9 sOverall bit rate : 4 657 kb/sMovie name : Danger Island: Disheartening SituationEncoded date : UTC 2018-06-16 16:55:15Writing application : mkvmerge v24.0.0 ('Beyond The Pale') 64-bitWriting library : libebml v1.3.6 + libmatroska v1.4.9Attachments : poster_archer.jpg

VideoID : 1Format : AVCFormat/Info : Advanced Video CodecFormat profile : [email protected] settings : 2 Ref FramesFormat settings, CABAC : NoFormat settings, ReFrames : 2 framesCodec ID : V_MPEG4/ISO/AVCDuration : 21 min 9 sBit rate : 3 884 kb/sWidth : 1 280 pixelsHeight : 720 pixelsDisplay aspect ratio : 16:9Frame rate mode : ConstantFrame rate : 23.976 (24000/1001) FPSColor space : YUVChroma subsampling : 4:2:0Bit depth : 8 bitsScan type : ProgressiveBits/(Pixel*Frame) : 0.176Stream size : 588 MiB (83%)Language : EnglishDefault : YesForced : NoColor range : LimitedColor primaries : BT.709Transfer characteristics : BT.709Matrix coefficients : BT.709

Audio #1ID : 2Format : AC-3Format/Info : Audio Coding 3Codec ID : A_AC3Duration : 21 min 9 sBit rate mode : ConstantBit rate : 384 kb/sChannel(s) : 6 channelsChannel positions : Front: L C R, Side: L R, LFESampling rate : 48.0 kHzFrame rate : 31.250 FPS (1536 SPF)Bit depth : 16 bitsCompression mode : LossyStream size : 58.1 MiB (8%)Title : MVO Кубик в Кубе & БЯКО РекордсLanguage : RussianService kind : Complete MainDefault : YesForced : No

Audio #2ID : 3Format : AC-3Format/Info : Audio Coding 3Codec ID : A_AC3Duration : 21 min 9 sBit rate mode : ConstantBit rate : 384 kb/sChannel(s) : 6 channelsChannel positions : Front: L C R, Side: L R, LFESampling rate : 48.0 kHzFrame rate : 31.250 FPS (1536 SPF)Bit depth : 16 bitsCompression mode : LossyDelay relative to video : 29 msStream size : 58.1 MiB (8%)Language : EnglishService kind : Complete MainDefault : NoForced : No

Text #1ID : 4Format : ASSCodec ID : S_TEXT/ASSCodec ID/Info : Advanced Sub Station AlphaDuration : 15 min 33 sBit rate : 6 b/sCount of elements : 15Compression mode : LosslessStream size : 782 Bytes (0%)Title : ForcedLanguage : RussianDefault : YesForced : Yes

Text #2ID : 5Format : UTF-8Codec ID : S_TEXT/UTF8Codec ID/Info : UTF-8 Plain TextDuration : 20 min 11 sBit rate : 108 b/sCount of elements : 395Stream size : 16.1 KiB (0%)Language : RussianDefault : NoForced : No

Text #3ID : 6Format : UTF-8Codec ID : S_TEXT/UTF8Codec ID/Info : UTF-8 Plain TextDuration : 20 min 20 sBit rate : 90 b/sCount of elements : 486Stream size : 13.4 KiB (0%)Language : EnglishDefault : NoForced : No

Menu00:00:00.000 : en:Danger Island: Disheartening Situation00:02:34.779 : en:Intro00:03:13.151 : en:Danger Island: Disheartening Situation
(Полноразмерные скриншоты открываются кликом по миниатюре)
Остров опасности: Странный пилот / Danger Island: Strange Pilot
Остров опасности: Тревожная ситуация / Danger Island: Disheartening Situation
Остров опасности: Разные способы препарирования фрукта / Danger Island: Different Modes of Preparing the Fruit
Остров опасности: Воин в костюме / Danger Island: A Warrior in Costume
Остров опасности: Странные дела в запретном лесу / Danger Island: Strange Doings in the Taboo Groves
Остров опасности: Некоторые отсылку к каннибализму / Danger Island: Some Remarks on Cannibalism
Danger Island: Comparative Wickedness of Civilized and Unenlightened Peoples
Danger Island: A Discovery



Трекер:  [ 16-Июн-2018 20:54 ]

  

Скачать .torrent

Размер .torrent файла 20 KB


Размер: 3.78 GB
Хэш (hash) релиза: 1465824f9c6b502f3afde4e267240cad9a52db80
Подписка на обновления:

Торренты, похожие на Спецагент Арчер Archer скачать торрент

Форум Название Автор Размер S L Добавлен
Мультсериалы ·%· Спецагент Арчер / Арчер / Archer / Сезон: 9 / Серии: 1-6 из 8 (Адам Рид, Брайан Фордни) [2018, США, Мультфильм, боевик, комедия, WEB-DLRip] MVO (Кубик в Кубе & БЯКО Рекордс) + Original Galfimbul 17542963201.63 GB 2 0 1529690051

20:54

22-Июн-18

Еще никто не оставлял запись к записи скачать торрент Спецагент Арчер Archer . Будь первым!

!Обратная связь