I.am.Setsuna-CODEX | Фильмы HD для Apple TV | Télécharger Part 6

Скачать через торрент [ATV3] Тельма Thelma бесплатно русская версия torrent активатор

Статистика раздачи
Размер:  7.59 GB   |    Зарегистрирован:  1 месяц 5 дней   |    .torrent скачан:  39 раз   |   
Раздают:  1  
   
загрузка...
 
Автор Сообщение

Galfimbul

avatar Galfimbul


Тельма / Thelma
«Sometimes the most terrifying discovery is who you really are»

6.588 / 10 7.10 / 10
Год выпуска: 2017
Страна: Норвегия, Франция, Дания, Швеция
Жанр: Фэнтези, триллер, драма, мелодрама, детектив
Продолжительность: 01:56:23

Перевод: Дублированный (iTunes)
Оригинальная аудиодорожка: Есть
Cубтитры: Русские форсированные, Русские, Английские
Режиссёр: Йоаким Триер
Сценарий: Эскиль Вогт, Йоаким Триер
Продюсер: Томас Робсам, Стефан Апельгрен, Сигве Эндресен
Оператор: Якоб Ире
Композитор: Ола Флёттум
Художник: Роджер Розенберг, Эллен Дэли Истехеде
Монтаж: Оливье Бугге Кутте
В ролях: Элли Харбоа, Кая Уилкинс, Хенрик Рафаелсен, Эллен Доррит Петерсен, Грета Эльтерваг, Марте Магнусдоттир Солем, Андерс Мосслинг, Ванесса Боргли, Стейнар Клоуман Халлерт, Ингрид Гьявер

Бюджет: NOK 47 500 000
Сборы в США: $147 391
Сборы в России: $41 917

Мировая премьера: 20 августа 2017
Премьера (РФ): 23 ноября 2017, «Артхаус»

Описание: Тельма поступает в университет и впервые начинает жить отдельно от родителей, гиперопекающих христиан. Девушка не поддается соблазнам, не пьет и не курит, но одному соблазну противостоять не может — ей очень нравится сокурсница Аня. Пробуждающиеся чувства и желания внезапно высвобождают ее пугающие тёмные способности. Когда подруга Тельмы пропадает, девушка осознает, что это может быть ее виной.
Качество исходника: Blu-ray-BLUEBIRD
Качество: BDRip
Тип: HD (1080p)
Контейнер: M4V
Видео: H.264, 1920x800, 2.40:1, 8 000 Kbps, 23.976 (24000/1001) fps

Аудио 1: Русский/Дублированный (iTunes), AAC / 2.0 / 160 Kbps / 48.0 KHz
Аудио 2: Норвежский/Оригинальная дорожка , AAC / 2.0 / 160 Kbps / 48.0 KHz
Аудио 3: Русский/Дублированный (iTunes), AC-3 / 5.1 / 384 Kbps / 48.0 KHz
Аудио 4: Норвежский/Оригинальная дорожка , AC-3 / 5.1 / 640 Kbps / 48.0 KHz

Субтитры 1: Русские форсированные
Субтитры 2: Русские полные
Субтитры 3: Английские полные
Sort Name: Thelma
XID: Apple:vendor_id:2017-1008731
contentID: 1298974035
Copyright: © 2017 Motlys AS, Film i Väst AB, Snowglobe ApS, Le Pacte SAS, Filmpool Nord AB, B-Reel Films AB and Don’t Look Now Productions AS
Screenwriters: Эскиль Вогт, Йоаким Триер
Producers: Томас Робсам, Стефан Апельгрен, Сигве Эндресен
Director: Йоаким Триер
Cast: Элли Харбоа, Кая Уилкинс, Хенрик Рафаелсен, Эллен Доррит Петерсен, Грета Эльтерваг, Марте Магнусдоттир Солем, Андерс Мосслинг, Ванесса Боргли, Стейнар Клоуман Халлерт, Ингрид Гьявер
Studio: The Orchard
Rating: 1
Long Description: Тельма поступает в университет и впервые начинает жить отдельно от родителей, гиперопекающих христиан. Девушка не поддается соблазнам, не пьет и не курит, но одному соблазну противостоять не может - ей очень нравится сокурсница Аня. Пробуждающиеся чувства и желания внезапно высвобождают ее пугающие тёмные способности. Когда подруга Тельмы пропадает, девушка осознает, что это может быть ее виной.
Description: Тельма поступает в университет и впервые начинает жить отдельно от родителей, гиперопекающих христиан. Девушка не поддается соблазнам, не пьет и не курит, но одному соблазну противостоять не может - ей очень нравится сокурсница Аня...
Release Date: 2017-08-20T08:00:00Z
Genre: Drama
Artist: Joachim Trier
Name: Thelma
General
Complete name                            : /Users/imac/HandBrake/Thelma (1080p HD).m4v
Format                                   : MPEG-4
Codec ID                                 : M4V  (M4V /M4A /mp42/isom)
File size                                : 7.59 GiB
Duration                                 : 1h 56mn
Overall bit rate mode                    : Variable
Overall bit rate                         : 9 338 Kbps
Movie name                               : Thelma
Performer                                : Joachim Trier
Director                                 : Йоаким Триер
Actor                                    : Элли Харбоа / Кая Уилкинс / Хенрик Рафаелсен / Эллен Доррит Петерсен / Грета Эльтерваг / Марте Магнусдоттир Солем / Андерс Мосслинг / Ванесса Боргли / Стейнар Клоуман Халлерт / Ингрид Гьявер
Screenplay by                            : Эскиль Вогт / Йоаким Триер
Producer                                 : Томас Робсам / Стефан Апельгрен / Сигве Эндресен
Production studio                        : The Orchard
Genre                                    : Drama
ContentType                              : Short Film
Description                              : Тельма поступает в университет и впервые начинает жить отдельно от родителей, гиперопекающих христиан. Девушка не поддается соблазнам, не пьет и не курит, но одному соблазну противостоять не может - ей очень нравится сокурсница Аня...
Recorded date                            : UTC 2017-08-20 08:00:00
Encoded date                             : UTC 2018-06-15 21:22:31
Tagged date                              : UTC 2018-06-15 21:24:56
Copyright                                : © 2017 Motlys AS, Film i Väst AB, Snowglobe ApS, Le Pacte SAS, Filmpool Nord AB, B-Reel Films AB and Don’t Look Now Productions AS
Cover                                    : Yes
Rating                                   : None
Title/Sort                               : Thelma
LongDescription                          : Тельма поступает в университет и впервые начинает жить отдельно от родителей, гиперопекающих христиан. Девушка не поддается соблазнам, не пьет и не курит, но одному соблазну противостоять не может - ей очень нравится сокурсница Аня. Пробуждающиеся чувства и желания внезапно высвобождают ее пугающие тёмные способности. Когда подруга Тельмы пропадает, девушка осознает, что это может быть ее виной.
AppleStoreCatalogID                      : 1298974035
Vendor                                   : Apple:vendor_id:2017-1008731
ContentRating                            : mpaa|NR|000|

Video #1
ID                                       : 1
Format                                   : AVC
Format/Info                              : Advanced Video Codec
Format profile                           : [email protected]
Format settings                          : CABAC / 4 Ref Frames
Format settings, CABAC                   : Yes
Format settings, ReFrames                : 4 frames
Codec ID                                 : avc1
Codec ID/Info                            : Advanced Video Coding
Duration                                 : 1h 56mn
Source duration                          : 1h 56mn
Bit rate                                 : 8 000 Kbps
Width                                    : 1 920 pixels
Height                                   : 800 pixels
Display aspect ratio                     : 2.40:1
Frame rate mode                          : Variable
Frame rate                               : 23.976 (24000/1001) fps
Minimum frame rate                       : 23.974 fps
Maximum frame rate                       : 23.981 fps
Color space                              : YUV
Chroma subsampling                       : 4:2:0
Bit depth                                : 8 bits
Scan type                                : Progressive
Bits/(Pixel*Frame)                       : 0.217
Stream size                              : 6.50 GiB (86%)
Source stream size                       : 6.50 GiB (86%)
Title                                    : Main Program
Writing library                          : x264 core 148 r2708 86b7198
Encoding settings                        : cabac=1 / ref=4 / deblock=1:-2:-2 / analyse=0x3:0x133 / me=umh / subme=10 / psy=1 / psy_rd=1.00:0.15 / mixed_ref=1 / me_range=32 / chroma_me=1 / trellis=2 / 8x8dct=1 / cqm=0 / deadzone=21,11 / fast_pskip=1 / chroma_qp_offset=-3 / threads=25 / lookahead_threads=6 / sliced_threads=0 / nr=0 / decimate=0 / interlaced=0 / bluray_compat=0 / constrained_intra=0 / bframes=16 / b_pyramid=2 / b_adapt=2 / b_bias=0 / direct=3 / weightb=1 / open_gop=0 / weightp=2 / keyint=240 / keyint_min=24 / scenecut=40 / intra_refresh=0 / rc_lookahead=40 / rc=2pass / mbtree=1 / bitrate=8000 / ratetol=1.0 / qcomp=0.70 / qpmin=0 / qpmax=69 / qpstep=4 / cplxblur=20.0 / qblur=0.5 / ip_ratio=1.40 / aq=1:1.00
Language                                 : English
Encoded date                             : UTC 2018-06-15 21:22:31
Tagged date                              : UTC 2018-06-15 21:22:50
Color range                              : Limited
Color primaries                          : BT.709
Transfer characteristics                 : BT.709
Matrix coefficients                      : BT.709
Menus                                    : 9,10

Video #2
ID                                       : 10
Format                                   : JPEG
Codec ID                                 : jpeg
Duration                                 : 1h 56mn
Bit rate mode                            : Variable
Bit rate                                 : 419 bps
Width                                    : 640 pixels
Height                                   : 266 pixels
Display aspect ratio                     : 2.40:1
Frame rate mode                          : Variable
Frame rate                               : 0.002 fps
Minimum frame rate                       : 0.001 fps
Maximum frame rate                       : 0.003 fps
Color space                              : YUV
Chroma subsampling                       : 4:2:0
Bit depth                                : 8 bits
Compression mode                         : Lossy
Bits/(Pixel*Frame)                       : 1.231
Stream size                              : 307 KiB (0%)
Title                                    : Chapter Images
Language                                 : English
Default                                  : No
Encoded date                             : UTC 2018-06-15 21:23:00
Tagged date                              : UTC 2018-06-15 21:23:00
Menu For                                 : 1
ColorSpace_ICC                           : RGB

Audio #1
ID                                       : 2
Format                                   : AAC
Format/Info                              : Advanced Audio Codec
Format profile                           : LC
Codec ID                                 : mp4a-40-2
Duration                                 : 1h 56mn
Source duration                          : 1h 56mn
Bit rate mode                            : Variable
Bit rate                                 : 154 Kbps
Maximum bit rate                         : 236 Kbps
Channel(s)                               : 2 channels
Channel positions                        : Front: L R
Sampling rate                            : 48.0 KHz
Frame rate                               : 46.875 fps (1024 SPF)
Compression mode                         : Lossy
Stream size                              : 129 MiB (2%)
Source stream size                       : 129 MiB (2%)
Title                                    : Russian Stereo
Language                                 : Russian
Default                                  : Yes
Alternate group                          : 1
Encoded date                             : UTC 2018-06-15 21:22:31
Tagged date                              : UTC 2018-06-15 21:22:55
Fallback From                            : 4
Subtitles                                : 6,7
Menus                                    : 9

Audio #2
ID                                       : 3
Format                                   : AAC
Format/Info                              : Advanced Audio Codec
Format profile                           : LC
Codec ID                                 : mp4a-40-2
Duration                                 : 1h 56mn
Source duration                          : 1h 56mn
Bit rate mode                            : Variable
Bit rate                                 : 158 Kbps
Maximum bit rate                         : 253 Kbps
Channel(s)                               : 2 channels
Channel positions                        : Front: L R
Sampling rate                            : 48.0 KHz
Frame rate                               : 46.875 fps (1024 SPF)
Compression mode                         : Lossy
Stream size                              : 131 MiB (2%)
Source stream size                       : 131 MiB (2%)
Title                                    : Norwegian Stereo
Language                                 : Norwegian
Default                                  : No
Alternate group                          : 1
Encoded date                             : UTC 2018-06-15 21:22:31
Tagged date                              : UTC 2018-06-15 21:22:54
Fallback From                            : 5

Audio #3
ID                                       : 4
Format                                   : AC-3
Format/Info                              : Audio Coding 3
Codec ID                                 : ac-3
Duration                                 : 1h 56mn
Bit rate mode                            : Constant
Bit rate                                 : 384 Kbps
Channel(s)                               : 6 channels
Channel positions                        : Front: L C R, Side: L R, LFE
Sampling rate                            : 48.0 KHz
Frame rate                               : 31.250 fps (1536 SPF)
Bit depth                                : 16 bits
Compression mode                         : Lossy
Stream size                              : 320 MiB (4%)
Title                                    : Russian DD 5.1
Language                                 : Russian
Service kind                             : Complete Main
Default                                  : Inherited From: 2
Alternate group                          : 1
Encoded date                             : UTC 2018-06-15 21:22:31
Tagged date                              : UTC 2018-06-15 21:22:46
Fallback To                              : 2
Subtitles                                : 6,7

Audio #4
ID                                       : 5
Format                                   : AC-3
Format/Info                              : Audio Coding 3
Codec ID                                 : ac-3
Duration                                 : 1h 56mn
Bit rate mode                            : Constant
Bit rate                                 : 640 Kbps
Channel(s)                               : 6 channels
Channel positions                        : Front: L C R, Side: L R, LFE
Sampling rate                            : 48.0 KHz
Frame rate                               : 31.250 fps (1536 SPF)
Bit depth                                : 16 bits
Compression mode                         : Lossy
Stream size                              : 533 MiB (7%)
Title                                    : Norwegian DD 5.1
Language                                 : Norwegian
Service kind                             : Complete Main
Default                                  : No
Alternate group                          : 1
Encoded date                             : UTC 2018-06-15 21:22:31
Tagged date                              : UTC 2018-06-15 21:22:46
Fallback To                              : 3

Text #1
ID                                       : 6
Format                                   : Timed Text
Muxing mode                              : sbtl
Codec ID                                 : tx3g
Duration                                 : 1h 44mn
Bit rate mode                            : Variable
Bit rate                                 : 1 bps
Stream size                              : 421 Bytes (0%)
Title                                    : Russian forced
Language                                 : Russian
Default                                  : Yes
Forced                                   : Yes
Alternate group                          : 2
Encoded date                             : UTC 2018-06-15 21:22:31
Tagged date                              : UTC 2018-06-15 21:22:31
Subtitles For                            : 2,4
Full Alternative                         : 7

Text #2
ID                                       : 7
Format                                   : Timed Text
Muxing mode                              : sbtl
Codec ID                                 : tx3g
Duration                                 : 1h 48mn
Bit rate mode                            : Variable
Bit rate                                 : 42 bps
Stream size                              : 33.2 KiB (0%)
Title                                    : Russian full
Language                                 : Russian
Default                                  : No
Forced                                   : No
Alternate group                          : 2
Encoded date                             : UTC 2018-06-15 21:22:31
Tagged date                              : UTC 2018-06-15 21:22:31
Subtitles For                            : 2,4
Forced Alternative                       : 6

Text #3
ID                                       : 8
Format                                   : Timed Text
Muxing mode                              : sbtl
Codec ID                                 : tx3g
Duration                                 : 1h 48mn
Bit rate mode                            : Variable
Bit rate                                 : 27 bps
Stream size                              : 21.7 KiB (0%)
Title                                    : English full
Language                                 : English
Default                                  : No
Forced                                   : No
Alternate group                          : 2
Encoded date                             : UTC 2018-06-15 21:22:31
Tagged date                              : UTC 2018-06-15 21:22:31

Menu #1
00:00:00.000                             : 00:00:00.000
00:11:14.340                             : 00:11:14.257
00:20:51.709                             : 00:20:51.625
00:30:28.410                             : 00:30:28.326
00:41:20.019                             : 00:41:19.936
00:47:49.992                             : 00:47:49.909
00:57:42.042                             : 00:57:41.958
01:13:14.724                             : 01:13:14.640
01:21:12.993                             : 01:21:12.910
01:30:13.325                             : 01:30:13.241
01:38:56.806                             : 01:38:56.806
01:49:27.061                             : 01:49:27.019

Menu #2
ID                                       : 9
Codec ID                                 : text
Duration                                 : 1h 56mn
Language                                 : English
Encoded date                             : UTC 2018-06-15 21:22:55
Tagged date                              : UTC 2018-06-15 21:22:55
Bit rate mode                            : CBR
Menu For                                 : 2,1
00:00:00.000                             : 00:00:00.000
00:11:14.340                             : 00:11:14.257
00:20:51.709                             : 00:20:51.625
00:30:28.410                             : 00:30:28.326
00:41:20.019                             : 00:41:19.936
00:47:49.992                             : 00:47:49.909
00:57:42.042                             : 00:57:41.958
01:13:14.724                             : 01:13:14.640
01:21:12.993                             : 01:21:12.910
01:30:13.325                             : 01:30:13.241
01:38:56.806                             : 01:38:56.806
01:49:27.061                             : 01:49:27.019
x264 [info]: frame I:903   Avg QP:13.42  size:163804
x264 [info]: frame P:28836 Avg QP:16.17  size: 67744
x264 [info]: frame B:137695 Avg QP:17.06  size: 35414
x264 [info]: consecutive B-frames:  1.7%  1.5%  3.6% 10.7% 11.5% 34.7%  5.6%  1.4%  5.5%  2.7%  3.5%  1.6%  3.3%  6.1%  2.4%  2.1%  2.2%
x264 [info]: mb I  I16..4: 23.0% 62.7% 14.4%
x264 [info]: mb P  I16..4:  8.4% 23.4%  2.4%  P16..4: 32.2% 14.4%  9.0%  0.4%  0.2%    skip: 9.7%
x264 [info]: mb B  I16..4:  2.5%  3.8%  0.4%  B16..8: 35.2% 10.3%  2.1%  direct:15.8%  skip:30.0%  L0:47.4% L1:41.3% BI:11.3%
x264 [info]: 8x8 transform intra:63.0% inter:54.5%
x264 [info]: direct mvs  spatial:98.7% temporal:1.3%
x264 [info]: coded y,uvDC,uvAC intra: 81.2% 63.6% 43.4% inter: 38.5% 33.0% 8.2%
x264 [info]: i16 v,h,dc,p: 25% 10% 42% 22%
x264 [info]: i8 v,h,dc,ddl,ddr,vr,hd,vl,hu: 13% 11% 22%  8%  9%  9%  9%  9% 11%
x264 [info]: i4 v,h,dc,ddl,ddr,vr,hd,vl,hu: 15% 13% 22%  7%  9%  9%  9%  7%  9%
x264 [info]: i8c dc,h,v,p: 54% 21% 18%  6%
x264 [info]: Weighted P-Frames: Y:4.5% UV:2.6%
x264 [info]: ref P L0: 48.7%  7.2% 27.4% 15.9%  0.7%  0.1%
x264 [info]: ref B L0: 76.8% 19.8%  3.4%
x264 [info]: ref B L1: 87.4% 12.6%
x264 [info]: kb/s:7993.44

Релиз подготовлен для просмотра на Apple TV, iPad, iPhone, iPod Touch.
Для просмотра данного релиза на компьютере с ОС Windows рекомендуется использовать VLC media player

Трекер:  [ 16-Июн-2018 01:06 ]

  

Скачать .torrent

Размер .torrent файла 76 KB


Размер: 7.59 GB
Хэш (hash) релиза: de0b7ceb0089b8a1ed759d3a7b0d6c7c64fe76e3

Еще никто не оставлял запись к записи скачать торрент [ATV3] Тельма Thelma . Будь первым!

!Обратная связь