Soccer Royale 2018, the ultimate football clash! | Peter Rabbit BluRay 1080p | New Series

Скачать порно через торрент Grandmother and I - grandmother, nanikadechauyoo - The motion anime Sobo to Boku ~Obaa-chan, Nanika Dechau yoo~ UnionPeer.org бесплатно онлайн HD качество

Скачать новое порно 2015, 2014 новинки через торрент UnionPeer.org

Порно торрент бесплатно ЮнионПир.орг

Статистика раздачи
Размер:  132 MB   |    Зарегистрирован:  2 месяца 5 дней   |    .torrent скачан:  719 раз   |   
Раздают:  2  
   
загрузка...
 
Автор Сообщение

Galfimbul

avatar Galfimbul


Grandmother and I - grandmother, nanikadechauyoo - The motion anime
Sobo to Boku ~Obaa-chan, Nanika Dechau yoo~
祖母と僕 ~おばあちゃん、なにかでちゃうよぉ~ The Motion Anime

Год выпуска: 2018
Жанр: big breast, incest, oral, paizuri, creampie, various
Серии: ep. 1 of 1
Продолжительность: 35mn
Цензура: Есть во всех файлах

Озвучка: Японская оригинальная
Субтитры: Японские встроенные неотключаемые (хардсаб)

Студия: Apataito / Appetite / アパタイト

Описание: PC gaming "grandmother and I - grandmother, nanikadechauyoo ..." motion Anime! Character Designer "Kawaimasaki" X scenario writer "Nakamori south Mori!" A grandmother having the good looks which are wonderful forever even if I repeat age. The story of the summer of such `grandmother'' and `grandchild''. Motion Anime improves 150% of true supplies by becoming it! Be sexy, and describe it!

…………Hmm…………Hmm…………"
Still wake up suddenly at night though it is dark. It felt a sense of incongruity that was strong in a body, and the one understood it immediately. When this is the touch involved in with one''s body. As for it directly on my chest. And remember it. Shota having slept today in the neighbor. "What''s the matter??" "A, well……Because was such big breast in front; just……" "Be fufu, the spoilt children who by any chance want the breast more?" At the time of So, the foot which I have moved incidentally hits a body of Shota, The touch of the hard thing comes. "Become strong in na, Nan or being impatient very much……Huh……" To rub my chest, and to harden it between crotches……. This child is not "a grandma" in me, "A woman" Is toshite Koto when he/she feels it? And be excited as a man……. ――Then my hand half goes unconsciously if a crotch of Shota is between it, Have run the fingers over the part which became hard of the So from pajamas.

Heroine
Name: Bi Natsuko (Minako)
A voice actor: Be Aoi paulownias, or come (Chinese parasol Kako)
Size: T163 / B97 (G) / W61 / H90
Setting: Be gentle as being quiet. Be younger, and, in spite of being the sixtieth birthday, be seen. The everyday running does not miss the exercise proudly either. There is not the night life with husband `Seiji'', but sometimes masturbate.

Main character
Name: Shota (Shota)
Setting: A child of daughter `Midori'' of `Haruka child''.
Come to stay at the house of `Haruka child'' using summer vacation.

◆Character Designer : Kawaimasaki (Kawai spindle tree)
◆Story: Nakamori south Mori (NAKAMO Rina harpoon)
◆Voice actor : Aoi paulownia kako (Chinese parasol Kako)
◆Genre: Motion movie Anime (WMV form)
◆Recorded Time: 34 minutes
◆Movie production: Survive
◆(C) appetite all rights reserved.

http://www.dmm.co.jp/en/dc/doujin/-/detail/=/cid=d_128275/
http://www.dlsite.com/pro/announce/=/product_id/VJ011916.html

Доп. информация: Игра здесь.

Качество видео: WEB-DL
Разрешение видео: 576p
Формат видео: MKV
Видео: 1024-576, 16-9, 30 fps, AVC, 499 kbps
Аудио: jpn, AAC, Stereo, 41.1 / 22.05 KHz, 28.2 kbps
General
Complete name : Grandmother_and_I_-_grandmother,_nanikadechauyoo_-_The_motion_anime_(2018)_[A0AE1AA4].mp4
Format : MPEG-4
Format profile : Base Media
Codec ID : isom (isom/avc1)
File size : 132 MiB
Duration : 34 min 39 s
Overall bit rate mode : Variable
Overall bit rate : 531 kb/s
Encoded date : UTC 2018-06-09 05:36:54
Tagged date : UTC 2018-06-09 05:36:54

Video
ID : 1
Format : AVC
Format/Info : Advanced Video Codec
Format profile : [email protected]
Format settings : CABAC / 8 Ref Frames
Format settings, CABAC : Yes
Format settings, RefFrames : 8 frames
Codec ID : avc1
Codec ID/Info : Advanced Video Coding
Duration : 34 min 38 s
Bit rate : 499 kb/s
Maximum bit rate : 2 106 kb/s
Width : 1 024 pixels
Height : 576 pixels
Display aspect ratio : 16:9
Frame rate mode : Constant
Frame rate : 30.000 FPS
Color space : YUV
Chroma subsampling : 4:2:0
Bit depth : 8 bits
Scan type : Progressive
Bits/(Pixel*Frame) : 0.028
Stream size : 124 MiB (94%)
Writing library : x264 core 146 r2538 121396c
Encoding settings : cabac=1 / ref=8 / deblock=1:1:0 / analyse=0x1:0x111 / me=hex / subme=7 / psy=1 / psy_rd=0.40:0.00 / mixed_ref=1 / me_range=16 / chroma_me=1 / trellis=1 / 8x8dct=0 / cqm=0 / deadzone=21,11 / fast_pskip=1 / chroma_qp_offset=-2 / threads=12 / lookahead_threads=2 / sliced_threads=0 / nr=0 / decimate=1 / interlaced=0 / bluray_compat=0 / constrained_intra=0 / bframes=6 / b_pyramid=2 / b_adapt=1 / b_bias=0 / direct=1 / weightb=1 / open_gop=0 / weightp=2 / keyint=286 / keyint_min=27 / scenecut=40 / intra_refresh=0 / rc_lookahead=40 / rc=2pass / mbtree=1 / bitrate=499 / ratetol=1.0 / qcomp=0.60 / qpmin=10 / qpmax=51 / qpstep=4 / cplxblur=20.0 / qblur=0.5 / vbv_maxrate=20000 / vbv_bufsize=25000 / nal_hrd=none / filler=0 / ip_ratio=1.40 / aq=2:0.60
Encoded date : UTC 2018-06-09 05:36:54
Tagged date : UTC 2018-06-09 05:37:06

Audio
ID : 2
Format : AAC
Format/Info : Advanced Audio Codec
Format profile : HE-AAC / LC
Format settings : Explicit
Codec ID : mp4a-40-2
Duration : 34 min 39 s
Bit rate mode : Variable
Bit rate : 28.2 kb/s
Maximum bit rate : 38.7 kb/s
Channel(s) : 2 channels
Channel positions : Front: L R
Sampling rate : 44.1 kHz / 22.05 kHz
Frame rate : 21.533 FPS (1024 SPF)
Compression mode : Lossy
Stream size : 7.00 MiB (5%)
Language : English
Encoded date : UTC 2018-06-09 05:08:24
Tagged date : UTC 2018-06-09 05:37:06


Трекер:  [ 16-Июн-2018 00:01 ]

  

Скачать .torrent

Размер .torrent файла 11 KB


Размер: 132 MB
Хэш (hash) релиза: 086aeed366b230c37ce59aa9ad64fd6e1a28a491

Еще никто не оставлял запись к записи скачать торрент Grandmother and I - grandmother, nanikadechauyoo - The motion anime Sobo to Boku ~Obaa-chan, Nanika Dechau yoo~ . Будь первым!

!Обратная связь