Overlord Movie 1: Fushisha no Ou Subtitle Indonesia | A Quiet Place (2018) RATING 7.8 / 10 QUALITY | Stargate Origins HDTV 720p AC3 5.1

Скачать порно через торрент SEX MAZE the Animation UnionPeer.org бесплатно онлайн HD качество

Скачать новое порно 2015, 2014 новинки через торрент UnionPeer.org

Порно торрент бесплатно ЮнионПир.орг

Статистика раздачи
Размер:  3.34 GB   |    Зарегистрирован:  1 месяц 7 дней   |    .torrent скачан:  326 раз   |   
Раздают:  3   Качают:  1  
   
загрузка...
 
Автор Сообщение

Galfimbul

avatar Galfimbul


SEX MAZE the Animation (End Of Year Discount)
淫夢迷路~熟女とJKを犯し征服せよ~

Год выпуска: 2014
Жанр: big breast, oral, anal, paizuri, footjob, group, bondage, toys, creampie
Серии: ep. 1 of 1
Продолжительность: 1h 31mn
Цензура: Есть во всех файлах

Озвучка: Японская оригинальная

Студия: No Such Agency

Описание: I opened my eyes to two pretty girls servicing me down there. Who were they? Full anime fully voice perverse woman and JK creampie sex!

CVs: Yuu Shimotsuki, Satsuki Akushiro

http://www.dlsite.com/ecchi-eng/work/=/product_id/RE137975.html

Доп. информация: Здесь 9 сцен, сколько всего есть, не знаю.

Качество видео: WEB-DL
Разрешение видео: 1080p
Формат видео: MKV
Видео: 1920-1080, 16-9, 30 fps, AVC, 5138 kbps
Аудио: jpn, AAC, Stereo, 44.1 KHz, 109 kbps
General
Unique ID : 302839675381189362215456054297391312459 (0xE3D4CCC75424457E696FDF07E288AE4B)
Complete name : SEX MAZE the animation (End of year discount) (9 scene) [E2AA9397].mkv
Format : Matroska
Format version : Version 4 / Version 2
File size : 3.34 GiB
Duration : 1 h 31 min
Overall bit rate mode : Variable
Overall bit rate : 5 250 kb/s
Encoded date : UTC 2018-06-15 16:58:23
Writing application : mkvmerge v24.0.0 (''Beyond The Pale'') 64-bit
Writing library : libebml v1.3.6 + libmatroska v1.4.9

Video
ID : 1
Format : AVC
Format/Info : Advanced Video Codec
Format profile : [email protected]
Format settings : CABAC / 1 Ref Frames
Format settings, CABAC : Yes
Format settings, RefFrames : 1 frame
Format settings, GOP : M=1, N=15
Codec ID : V_MPEG4/ISO/AVC
Duration : 1 h 31 min
Bit rate mode : Variable
Bit rate : 5 138 kb/s
Maximum bit rate : 14.8 Mb/s
Width : 1 920 pixels
Height : 1 080 pixels
Display aspect ratio : 16:9
Frame rate mode : Constant
Frame rate : 30.000 FPS
Color space : YUV
Chroma subsampling : 4:2:0
Bit depth : 8 bits
Scan type : Progressive
Bits/(Pixel*Frame) : 0.083
Stream size : 3.27 GiB (98%)
Default : Yes
Forced : No

Audio
ID : 2
Format : AAC
Format/Info : Advanced Audio Codec
Format profile : LC
Codec ID : A_AAC-2
Duration : 1 h 31 min
Bit rate : 109 kb/s
Channel(s) : 2 channels
Channel positions : Front: L R
Sampling rate : 44.1 kHz
Frame rate : 43.066 FPS (1024 SPF)
Compression mode : Lossy
Stream size : 71.0 MiB (2%)
Default : Yes
Forced : No


Трекер:  [ 16-Июн-2018 00:03 ]

  

Скачать .torrent

Размер .torrent файла 17 KB


Размер: 3.34 GB
Хэш (hash) релиза: b07bde04c62dd119803ef872db113c05aa86eab1

Еще никто не оставлял запись к записи скачать торрент SEX MAZE the Animation . Будь первым!

!Обратная связь