BD OVA Kami Nomi Zo Shiru Sekai : 4 Nin To Idol Subtitle Indonesia | The Big Combo | Rachelle Hardy

Скачать через торрент Ловушка лжи Netsuzou Trap: NTR бесплатно Аниме Все серии на русском torrent

Статистика раздачи
Размер:  7.77 GB   |    Зарегистрирован:  1 месяц 2 дня   |    .torrent скачан:  35 раз   |   
Раздают:  1  
   
загрузка...
 
Автор Сообщение

Galfimbul

avatar Galfimbul


Ловушка лжи / Netsuzou Trap: NTR

Страна: Япония
Год выпуска: 2017
Жанр: сёдзе-ай, романтика, драма
Тип: TV
Продолжительность: 12 эп. по ~9 мин.
Режиссер: Хирасава Хисаёси
Студия: Creators in Pack
Описание: Героини этого аниме Юма Окасаки и Хотару Мизушина оказались в весьма непростой и щекотливой ситуации. Они подруги детства, всегда и везде были вместе, Юма вечно защищала Хотару от недругов. Хоть Юма и была смелой девушкой, в романтическом плане она оставалась скромницей и тихоней. В отличии от Хотару, которая в свои школьные годы перебрала уже уйму парней. Поступив в старшую школу, Юма решила, что хватит сидеть в монашках, пора бы начать свои любовные похождения.

Но, даже начав встречаться с парнем по имени Такеда, Юма не могла перестать стесняться и попросила Хотару устроить двойное свидание с её парнем. Хотару предложила Юме порепетировать дома и сыграла роль Такеды. Но кто бы мог подумать, что поцелуй Хотару разожжёт в Юме настоящую страсть. Им обеим в объятиях друг друга понравилось куда больше, чем со своими парнями. Теперь им приходится вести двойную жизнь, скрывая свои предпочтения от окружающих и наслаждаясь обществом друг друга за закрытой дверью. Оказалось, что держать это в секрете не так уж и просто.
Качество: BDRip
Тип релиза: Без хардсаба
Формат видео: MKV
Наличие линковки: Нет
Релиз/Автор рипа: Jensen & DJATOM [Beatrice-Raws]
Видео: x264, AVC, 1920x1080, 8258 Kbps, 23.976 fps, (Hi10P)
Аудио: JAP(int), FLAC, 48.0 kHz, 2.0 ch, 652 Kbps
Субтитры: RUS(ext), ASS, перевод: [SovetRomantica] LiteSun & Akira
ОбщееУникальный идентификатор : 93189977455684734270888671249921030599 (0x461BBC9F924C234F2D2E91F4BBDD39C7)Полное имя : D:\Film\anim\Serial\[Beatrice-Raws] Netsuzou Trap NTR [BDRip 1920x1080 x264 FLAC]\[Beatrice-Raws] Netsuzou Trap NTR 01 [BDRip 1920x1080 x264 FLAC].mkvФормат : MatroskaВерсия формата : Version 4 / Version 2Размер файла : 575 МбайтПродолжительность : 9 м. 1 с.Режим общего битрейта : ПеременныйОбщий поток : 8912 Кбит/секДата кодирования : UTC 2018-03-04 19:50:15Программа кодирования : mkvmerge v21.0.0 ('Tardigrades Will Inherit The Earth') 64-bitБиблиотека кодирования : libebml v1.3.5 + libmatroska v1.4.8

ВидеоИдентификатор : 1Формат : AVCФормат/Информация : Advanced Video CodecПрофиль формата : High [email protected]Настройки формата : CABAC / 4 Ref FramesПараметр CABAC формата : ДаПараметр RefFrames формата : 4 кадраИдентификатор кодека : V_MPEG4/ISO/AVCПродолжительность : 9 м. 0 с.Битрейт : 8258 Кбит/секШирина : 1920 пикселейВысота : 1080 пикселейСоотношение сторон : 16:9Режим частоты кадров : ПостоянныйЧастота кадров : 23,976 (24000/1001) кадра/секЦветовое пространство : YUVСубдискретизация насыщенности : 4:2:0Битовая глубина : 10 битТип развёртки : ПрогрессивнаяБит/(Пиксели*Кадры) : 0.166Размер потока : 533 Мбайт (93%)Заголовок : BDRip by Jensen & DJATOMБиблиотека кодирования : x264 core 152 r2851M ba24899 (DJATOM's build)Настройки программы : cabac=1 / ref=4 / deblock=1:1:-1 / analyse=0x3:0x113 / me=umh / subme=9 / psy=1 / psy_rd=1.00:0.00 / mixed_ref=1 / me_range=32 / chroma_me=1 / trellis=2 / 8x8dct=1 / cqm=0 / deadzone=21,11 / fast_pskip=1 / chroma_qp_offset=-2 / threads=34 / lookahead_threads=5 / sliced_threads=0 / nr=0 / decimate=1 / interlaced=0 / bluray_compat=0 / constrained_intra=0 / bframes=9 / b_pyramid=2 / b_adapt=2 / b_bias=0 / direct=1 / weightb=1 / open_gop=0 / weightp=2 / keyint=240 / keyint_min=23 / scenecut=40 / intra_refresh=0 / rc=crf / mbtree=0 / crf=15.0000 / qcomp=0.72 / qpmin=0 / qpmax=81 / qpstep=4 / ip_ratio=1.40 / pb_ratio=1.30 / aq=1:0.85Язык : JapaneseDefault : ДаForced : НетЦветовой диапазон : LimitedОсновные цвета : BT.709Характеристики трансфера : BT.709Коэффициенты матрицы : BT.709

АудиоИдентификатор : 2Формат : FLACФормат/Информация : Free Lossless Audio CodecИдентификатор кодека : A_FLACПродолжительность : 9 м. 1 с.Вид битрейта : ПеременныйБитрейт : 652 Кбит/секКаналы : 2 каналаРасположение каналов : Front: L RЧастота : 48,0 КГцЧастота кадров : 11,719 кадров/сек (4096 SPF)Битовая глубина : 16 битРазмер потока : 42,1 Мбайт (7%)Библиотека кодирования : libFLAC 1.3.1 (UTC 2014-11-25)Язык : JapaneseDefault : ДаForced : Нет

Меню00:00:00.000 : en:Avant00:01:50.444 : en:OP00:03:18.365 : en:Part A00:08:24.671 : en:ED00:08:54.951 : en:End

01. A Secret Between Girls
02. Are Those Two...
03. Shall We Practice Again?
04. ...I`m Cheating, Too?
05. I`m So Fed Up with Myself...
06. Did You Think I Was Going to Kiss You?
07. We`ll Always Be Best Friends, Right?
08. Uncontrollable Feelings
09. Give Me Your Cold
10. What Exactly Is Our Relationship?
11. Thanks, and I`m Sorry
12. Why Did It Take Me This Long to Realize?

...5425627 - HDTVRip 720p
...5425090 - WEBRip 720p

Данная раздача - BDRip 1080



Трекер:  [ 14-Июн-2018 19:30 ]

  

Скачать .torrent

Размер .torrent файла 22 KB


Размер: 7.77 GB
Хэш (hash) релиза: 74d432e83305b8b2651ce1e428dc44b0d225f5e1
Подписка на обновления:

Торренты, похожие на Ловушка лжи Netsuzou Trap: NTR скачать торрент

Форум Название Автор Размер S L Добавлен
Аниме | HD Rips ·· Ловушка лжи / Netsuzou Trap: NTR [TV] [01 из 12] [Без хардсаба] [JAP+SUB] [2017, сёдзе-ай, романтика, драма, HDTVRip] [720p] Galfimbul 123744894118 MB 0 0 1499432564

16:02

7-Июл-17

Аниме | Rips ·· Ловушка лжи / Netsuzou Trap: NTR [TV] [01 из 12] [Без хардсаба] [RUS(ext), JAP, SUB] [2017, Романтика, Драма, Сёдзё-ай, WEBRip] [720p] Galfimbul 168002142160 MB 0 0 1499308277

05:31

6-Июл-17

Еще никто не оставлял запись к записи скачать торрент Ловушка лжи Netsuzou Trap: NTR . Будь первым!

!Обратная связь