James Black | Andrew Hall | Anne Eleftheriadis

Скачать через торрент Мой брат Дьявол My Brother the Devil Фильм бесплатно в хорошем качестве torrent

Скачивайте на UnionPeer.org фильмы через торрент без регистрации. Новинки кино в хорошем качестве через торрент. На UnionPeer.org можно скачать через торрент фильмы 2014 и 2015 годов. Самые новые фильмы.

Скачать торрент Мой брат Дьявол My Brother the Devil бесплатно через .torrent фильм мультфильм сериал

Статистика раздачи
Размер:  1.43 GB   |    Зарегистрирован:  10 дней   |    .torrent скачан:  22 раза   |   
Раздают:  1  
   
загрузка...
 
Автор Сообщение

Galfimbul

avatar Galfimbul


Мой брат Дьявол
My Brother the Devil
Страна: Великобритания
Жанр: драма
Год выпуска: 2012
Продолжительность: 01:51:47
Перевод: Одноголосый закадровый - Василий Кошкин
Субтитры: нет
Оригинальная аудиодорожка: английский
Режиссер: Салли Эль Хосейни / Sally El Hosaini
В ролях: Джеймс Флойд, Фейди Эльсайед, Энтони Уэльс, Амира Хазалла, Нассер Мемарзиа, Аймен Хамдуши, Арнольд Ошенг
Описание:

Это история о двух братьях, эмигрантах с ближнего востока, живущих в мрачном районе на окраине Лондона. Восприимчивый четырнадцатилетний Мо боготворит своего старшего брата Рашида, который содержит семью, будучи прозорливым дельцом и членом банды наркоторговцев. Сам девятнадцатилетний Рашид надеется, что его младший брат выберет другой путь в жизни. Когда столкновение с конкурирующей бандой приводит к смерти его лучшего друга, Рашид начинает задаваться вопросом, правильную жизнь он ведет.
Сэмпл
Качество видео: BDRip / My.Brother.The.Devil.2012.BRRip.XviD.MP3-RARBG /
Формат видео: AVI
Видео: 720x300 (2.40:1), 24 fps, XviD MPEG-4 ~1427 kbps avg, 0.28 bit/pixel
Аудио: 48 kHz, AC3 Dolby Digital, 2/0 (L,R) ch, ~192 kbps
Аудио 2: 48 kHz, AC3 Dolby Digital, 2/0 (L,R) ch, ~192 kbps
GeneralComplete name : G:\My.Brother.The.Devil.2012.aviFormat : AVIFormat/Info : Audio Video InterleaveFile size : 1.43 GiBDuration : 1h 51mnOverall bit rate : 1 827 KbpsMovie name : RARBG - My.Brother.The.Devil.2012.BRRip.XviD.MP3-RARBGWriting application : VirtualDubMod 1.5.10.2 (build 2540/release)Writing library : VirtualDubMod build 2540/releaseComment : RARBG - My.Brother.The.Devil.2012.BRRip.XviD.MP3-RARBG

VideoID : 0Format : MPEG-4 VisualFormat profile : [email protected] settings, BVOP : NoFormat settings, QPel : NoFormat settings, GMC : No warppointsFormat settings, Matrix : Default (H.263)Codec ID : XVIDCodec ID/Hint : XviDDuration : 1h 51mnBit rate : 1 429 KbpsWidth : 720 pixelsHeight : 300 pixelsDisplay aspect ratio : 2.40:1Frame rate : 24.000 fpsColor space : YUVChroma subsampling : 4:2:0Bit depth : 8 bitsScan type : ProgressiveCompression mode : LossyBits/(Pixel*Frame) : 0.276Stream size : 1.12 GiB (78%)Writing library : Lavc57.89.100

Audio #1ID : 1Format : AC-3Format/Info : Audio Coding 3Mode extension : CM (complete main)Format settings, Endianness : BigCodec ID : 2000Duration : 1h 51mnBit rate mode : ConstantBit rate : 192 KbpsChannel(s) : 2 channelsChannel positions : Front: L RSampling rate : 48.0 KHzBit depth : 16 bitsCompression mode : LossyStream size : 154 MiB (11%)Alignment : Split accross interleavesInterleave, duration : 42 ms (1.00 video frame)Interleave, preload duration : 500 ms

Audio #2ID : 2Format : AC-3Format/Info : Audio Coding 3Mode extension : CM (complete main)Format settings, Endianness : BigCodec ID : 2000Duration : 1h 51mnBit rate mode : ConstantBit rate : 192 KbpsChannel(s) : 2 channelsChannel positions : Front: L RSampling rate : 48.0 KHzBit depth : 16 bitsCompression mode : LossyStream size : 154 MiB (11%)Alignment : Split accross interleavesInterleave, duration : 42 ms (1.00 video frame)Interleave, preload duration : 500 ms


Трекер:  [ 14-Июн-2018 18:30 ]

  

Скачать .torrent

Размер .torrent файла 14 KB


Размер: 1.43 GB
Хэш (hash) релиза: 842fe933eaf255a39989dde78f73f8e9fefb37ba
Подписка на обновления:

Еще никто не оставлял запись к записи скачать торрент Мой брат Дьявол My Brother the Devil . Будь первым!

!Обратная связь