The Holy Bible | Paul Sédir - Histoire et doctrine des Rose-Croix | The Egyptian 1954 Movie Free Download 720p BluRay

Скачать через торрент Султан моего сердца Kalbimin Sultanı Фильм бесплатно в хорошем качестве torrent

Скачивайте на UnionPeer.org фильмы через торрент без регистрации. Новинки кино в хорошем качестве через торрент. На UnionPeer.org можно скачать через торрент фильмы 2014 и 2015 годов. Самые новые фильмы.

Скачать торрент Султан моего сердца Kalbimin Sultanı бесплатно через .torrent фильм мультфильм сериал

Статистика раздачи
Размер:  1.1 GB   |    Зарегистрирован:  1 месяц 2 дня   |    .torrent скачан:  32 раза   |   
Раздают:  1  
   
загрузка...
 
Автор Сообщение

Galfimbul

avatar Galfimbul


Султан моего сердца / Kalbimin Sultanı

Год выпуска: 2018
Страна: Турция
Производство: Киностудия КИТ, Maya Productions, Global Connection International Media Group
Жанр: Исторический сериал, мелодрама
Серии (количество): 1 (24)
Продолжительность: ~ 02:07:00 каждая серия
Перевод: любительский одноголосый закадровый (turok1990)
Субтитры: отсутствуют

Режиссёр: Bobby Roth, Kerem Çakıroğlu / Бобби Рот, Керем Чакыроглу

В ролях: Али Эрсан Дуру / Ali Ersan Duru – Султан Махмуд
Александра Никифирова – Анна
Александр Соколовский
Эмель Чёлгечен / Emel Çölgeçen – Эсма Султан
Ытыр Эсен / Itır Esen – Айше Сине Первер Султан
Энгин Хепилери / Engin Hepileri – Намык
Гизем Денизджи / Gizem Denizci – Салиха
Айтен Сойкёк / Ayten Soykök – Джеври Калфа
Тунджер Салман / Tuncer Salman – Халет Эфенди
Танер Румели / Taner Rumeli – Муса Ага
Шамиль Кафкас / Şamil Kafkas

Описание: Действия российско-турецкого историко-мелодраматического сериала "Султан моего сердца" проходят в Константинополе в начале XIX века. Султан Махмуд II случайно знакомится с дочерью одного из чиновников, работающих в посольстве Российской империи. Османского правителя впечатляет интеллект и познания молодой девушки, он предлагает ей стать учительницей его детей, маленьких шехзаде. Анна отказывается, однако ей приходится уступить после давления посла Дмитрия. Находясь во дворце Анна начинает понимать, что влюбилась в Султана Махмуда. Но у нее и так масса проблем: шехзаде не слушаются чужестранку, да к тому же, обитательницы гарема воспринимают ее как соперницу. И не напрасно, ведь Правитель и сам влюбился в красавицу-учительницу...

Качество: WEBRip (720p)
Формат: MP4
Видео кодек: H.264
Аудио кодек: AAC
Видео: MPEG4 Video (H264) 1280x720 30.112fps 1029kbps
Аудио: AAC 48000Hz stereo 195kbps
Реклама:
отсутствует
General
Complete name : K:\Sultan.2018.Turok1990.WEBRip720p\Sultan.s01.e01.2018.Turok1990.WEBRip720p.mp4
Format : MPEG-4
Format profile : Base Media
Codec ID : isom (isom/iso2/avc1/mp41)
File size : 1.10 GiB
Duration : 2 h 7 min
Overall bit rate : 1 233 kb/s
Writing application : Lavf56.25.101

Video
ID : 1
Format : AVC
Format/Info : Advanced Video Codec
Format profile : [email protected]
Format settings, CABAC : Yes
Format settings, ReFrames : 1 frame
Format settings, GOP : M=1, N=25
Codec ID : avc1
Codec ID/Info : Advanced Video Coding
Duration : 2 h 7 min
Bit rate : 1 029 kb/s
Width : 1 280 pixels
Height : 720 pixels
Display aspect ratio : 16:9
Frame rate mode : Variable
Frame rate : 30.112 FPS
Minimum frame rate : 30.000 FPS
Maximum frame rate : 30.112 FPS
Color space : YUV
Chroma subsampling : 4:2:0
Bit depth : 8 bits
Scan type : Progressive
Bits/(Pixel*Frame) : 0.037
Stream size : 939 MiB (83%)

Audio
ID : 2
Format : AAC
Format/Info : Advanced Audio Codec
Format profile : LC
Codec ID : 40
Duration : 2 h 7 min
Bit rate mode : Constant
Bit rate : 192 kb/s
Channel(s) : 2 channels
Channel positions : Front: L R
Sampling rate : 48.0 kHz
Frame rate : 46.875 FPS (1024 spf)
Compression mode : Lossy
Stream size : 179 MiB (16%)
Default : Yes
Alternate group : 1
Предыдущие и альтернативные раздачи

Трекер:  [ 14-Июн-2018 17:48 ]

  

Скачать .torrent

Размер .torrent файла 11 KB


Размер: 1.1 GB
Хэш (hash) релиза: 74cf6056651713bfb5fbcfee93a990d3c421a2a3
Подписка на обновления:

Еще никто не оставлял запись к записи скачать торрент Султан моего сердца Kalbimin Sultanı . Будь первым!

!Обратная связь