Mr. House Husband | Download YoungHeart - Known (Tauren Wells) mp3 | Die Abenteuer des Brisco County Jr.

Скачать через торрент Султан моего сердца Kalbimin Sultanı Фильм бесплатно в хорошем качестве torrent

Скачивайте на UnionPeer.org фильмы через торрент без регистрации. Новинки кино в хорошем качестве через торрент. На UnionPeer.org можно скачать через торрент фильмы 2014 и 2015 годов. Самые новые фильмы.

Скачать торрент Султан моего сердца Kalbimin Sultanı бесплатно через .torrent фильм мультфильм сериал

Статистика раздачи
Размер:  1.93 GB   |    Зарегистрирован:  1 месяц 2 дня   |    .torrent скачан:  32 раза   |   
Раздают:  1  
   
загрузка...
 
Автор Сообщение

Galfimbul

avatar Galfimbul


Султан моего сердца / Kalbimin Sultanı

Год выпуска: 2018
Страна: Турция
Производство: Киностудия КИТ, Maya Productions, Global Connection International Media Group
Жанр: Исторический сериал, мелодрама
Серии (количество): 1 (24)
Продолжительность: ~ 02:07:00 каждая серия
Субтитры: Русские

Режиссёр: Bobby Roth, Kerem Çakıroğlu / Бобби Рот, Керем Чакыроглу

В ролях: Али Эрсан Дуру / Ali Ersan Duru – Султан Махмуд
Александра Никифирова – Анна
Александр Соколовский
Эмель Чёлгечен / Emel Çölgeçen – Эсма Султан
Ытыр Эсен / Itır Esen – Айше Сине Первер Султан
Энгин Хепилери / Engin Hepileri – Намык
Гизем Денизджи / Gizem Denizci – Салиха
Айтен Сойкёк / Ayten Soykök – Джеври Калфа
Тунджер Салман / Tuncer Salman – Халет Эфенди
Танер Румели / Taner Rumeli – Муса Ага
Шамиль Кафкас / Şamil Kafkas

Описание: Действия российско-турецкого историко-мелодраматического сериала "Султан моего сердца" проходят в Константинополе в начале XIX века. Султан Махмуд II случайно знакомится с дочерью одного из чиновников, работающих в посольстве Российской империи. Османского правителя впечатляет интеллект и познания молодой девушки, он предлагает ей стать учительницей его детей, маленьких шехзаде. Анна отказывается, однако ей приходится уступить после давления посла Дмитрия. Находясь во дворце Анна начинает понимать, что влюбилась в Султана Махмуда. Но у нее и так масса проблем: шехзаде не слушаются чужестранку, да к тому же, обитательницы гарема воспринимают ее как соперницу. И не напрасно, ведь Правитель и сам влюбился в красавицу-учительницу...

Качество: WEBRip (720p)
Формат: MP4
Видео кодек: H.264
Аудио кодек: AAC
Видео: MPEG4 Video (H264) 1280x720 25fps 1970kbps
Аудио: AAC 44100Hz mono 192kbps
Реклама:
Отсутствует
General
Complete name : K:\Sultan.2018.russ.sub.WEBRip720p\Sultan.s01.e01.2018.russ.sub.WEBRip720p.mp4
Format : MPEG-4
Format profile : Base Media
Codec ID : isom (isom/iso2/avc1/mp41)
File size : 1.93 GiB
Duration : 2 h 7 min
Overall bit rate : 2 169 kb/s
Writing application : Lavf57.83.100

Video
ID : 1
Format : AVC
Format/Info : Advanced Video Codec
Format profile : [email protected]
Format settings, CABAC : Yes
Format settings, ReFrames : 4 frames
Codec ID : avc1
Codec ID/Info : Advanced Video Coding
Duration : 2 h 7 min
Bit rate : 1 980 kb/s
Width : 1 280 pixels
Height : 720 pixels
Display aspect ratio : 16:9
Frame rate mode : Constant
Frame rate : 25.000 FPS
Color space : YUV
Chroma subsampling : 4:2:0
Bit depth : 8 bits
Scan type : Progressive
Bits/(Pixel*Frame) : 0.086
Stream size : 1.76 GiB (91%)
Writing library : x264 core 148
Encoding settings : cabac=1 / ref=2 / deblock=1:0:0 / analyse=0x3:0x113 / me=hex / subme=6 / psy=1 / psy_rd=1.00:0.00 / mixed_ref=1 / me_range=16 / chroma_me=1 / trellis=1 / 8x8dct=1 / cqm=0 / deadzone=21,11 / fast_pskip=1 / chroma_qp_offset=-2 / threads=6 / lookahead_threads=1 / sliced_threads=0 / nr=0 / decimate=1 / interlaced=0 / bluray_compat=0 / constrained_intra=0 / bframes=3 / b_pyramid=2 / b_adapt=1 / b_bias=0 / direct=1 / weightb=1 / open_gop=0 / weightp=1 / keyint=250 / keyint_min=25 / scenecut=40 / intra_refresh=0 / rc_lookahead=30 / rc=2pass / mbtree=1 / bitrate=1980 / ratetol=1.0 / qcomp=0.60 / qpmin=0 / qpmax=69 / qpstep=4 / cplxblur=20.0 / qblur=0.5 / vbv_maxrate=1980 / vbv_bufsize=3960 / nal_hrd=none / filler=0 / ip_ratio=1.40 / aq=1:1.00

Audio
ID : 2
Format : AAC
Format/Info : Advanced Audio Codec
Format profile : LC
Codec ID : 40
Duration : 2 h 7 min
Duration_LastFrame : -12 ms
Bit rate mode : Constant
Bit rate : 192 kb/s
Channel(s) : 2 channels
Channel(s)_Original : 1 channel
Channel positions : Front: C
Sampling rate : 44.1 kHz
Frame rate : 43.066 FPS (1024 spf)
Compression mode : Lossy
Stream size : 175 MiB (9%)
Default : Yes
Alternate group : 1
Предыдущие и альтернативные раздачи

Трекер:  [ 14-Июн-2018 14:18 ]

  

Скачать .torrent

Размер .torrent файла 20 KB


Размер: 1.93 GB
Хэш (hash) релиза: c67b296d3d762793b1e1d1f1570addd13f33785f
Подписка на обновления:

Еще никто не оставлял запись к записи скачать торрент Султан моего сердца Kalbimin Sultanı . Будь первым!

!Обратная связь