Chapter 125 | Virage Nord | peter fever com

Скачать через торрент [ATV3] Конченая Terminal бесплатно русская версия torrent активатор

Статистика раздачи
Размер:  4.38 GB   |    Зарегистрирован:  2 месяца 4 дня   |    .torrent скачан:  28 раз   |   
Раздают:  1  
   
загрузка...
 
Автор Сообщение

Galfimbul

avatar Galfimbul


Конченая / Terminal
«Ребятки, я вернулась!»

5.714 / 10 5.20 / 10
Год выпуска: 2018
Страна: США
Жанр: Триллер, драма, криминал
Продолжительность: 01:35:32

Перевод: Дублированный (iTunes)
Оригинальная аудиодорожка: Есть
Cубтитры: Русские форсированные, Русские, Английские
Режиссёр: Вон Стайн
Сценарий: Вон Стайн
Продюсер: Том Акерли, Дэвид Баррон, Эрианн Фрайзер
Оператор: Кристофер Росс
Композитор: Тони Кларк, Руперт Грегсон-Уильямс
Художник: Ричард Буллок, Адриен Асталош, Джулиан Дэй
Монтаж: Йоханнес Бок, Алекс Маркес
В ролях: Марго Робби, Саймон Пегг, Декстер Флетчер, Майк Майерс, Макс Айронс, Катарина Час, Ник Моран, Лес Лавдей, Джордан Данн, Мэттью Льюис

Сборы в России: $516 652

Мировая премьера: 10 мая 2018
Премьера (РФ): 17 мая 2018, «Централ Партнершип»

Цифровой релиз: 14 июня 2018, «All media»

Описание: Фильм окунет вас в опасный мир английского криминала. В центре истории — роковая особа Энни, предстающая в разных амплуа. Она ведет сложную игру с несколькими мужчинами, которых — на первый взгляд — ничто не связывает. Стравливая их друг с другом, она преследует свою жестокую цель.
Качество исходника: WEB-DL 1080p (NNMClub)
Качество: WEB-DL
Тип: HD (1080p)
Контейнер: M4V
Видео: H.264, 1912x1072, 16:9, 5 218 Kbps, 23.976 fps

Аудио 1: Русский/Дублированный (iTunes), AAC / 2.0 / 160 Kbps / 48.0 KHz
Аудио 2: Английский/Оригинальная дорожка , AAC / 2.0 / 160 Kbps / 48.0 KHz
Аудио 3: Русский/Дублированный (iTunes), AC-3 / 5.1 / 384 Kbps / 48.0 KHz
Аудио 4: Английский/Оригинальная дорожка , AC-3 / 5.1 / 640 Kbps / 48.0 KHz

Субтитры 1: Русские форсированные
Субтитры 2: Русские полные
Субтитры 3: Английские полные
Sort Name: Terminal
XID: Apple:vendor_id:2018-908041
contentID: 1368339199
Copyright: © 2017 Mr. Lively, LLC. All Rights Reserved.
Screenwriters: Вон Стайн
Producers: Том Акерли, Дэвид Баррон, Эрианн Фрайзер
Director: Вон Стайн
Cast: Марго Робби, Майк Майерс, Саймон Пегг, Макс Айронс, Декстер Флетчер, Мэттью Льюис, Катарина Час, Ник Моран, Томас Тургус, Джордан Данн
Studio: RLJE Films
Rating: 0
Long Description: Фильм окунет вас в опасный мир английского криминала. В центре истории — роковая особа Энни, предстающая в разных амплуа. Она ведет сложную игру с несколькими мужчинами, которых — на первый взгляд — ничто не связывает. Стравливая их друг с другом, она преследует свою жестокую цель.
Description: Фильм окунет вас в опасный мир английского криминала. В центре истории — роковая особа Энни, предстающая в разных амплуа. Она ведет сложную игру с несколькими мужчинами, которых — на первый взгляд — ничто не связывает.
Release Date: 2018-05-11T07:00:00Z
Genre: Thriller
Artist: Vaughn Stein
Name: Terminal
General
Complete name : /Users/imac/HandBrake/Terminal.WEB-DL.1080p.m4v
Format : MPEG-4
Codec ID : M4V
File size : 4.38 GiB
Duration : 1h 35mn
Overall bit rate mode : Variable
Overall bit rate : 6 567 Kbps
Movie name : Terminal
Performer : Vaughn Stein
Director : Вон Стайн
Actor : Марго Робби / Майк Майерс / Саймон Пегг / Макс Айронс / Декстер Флетчер / Мэттью Льюис / Катарина Час / Ник Моран / Томас Тургус / Джордан Данн
Screenplay by : Вон Стайн
Producer : Том Акерли / Дэвид Баррон / Эрианн Фрайзер
Production studio : RLJE Films
Genre : Thriller
ContentType : Short Film
Description : Фильм окунет вас в опасный мир английского криминала. В центре истории — роковая особа Энни, предстающая в разных амплуа. Она ведет сложную игру с несколькими мужчинами, которых — на первый взгляд — ничто не связывает.
Recorded date : UTC 2018-05-11 07:00:00
Encoded date : UTC 2018-06-13 23:36:51
Tagged date : UTC 2018-06-14 08:51:05
Copyright : © 2017 Mr. Lively, LLC. All Rights Reserved.
Cover : Yes
Rating : None
Title/Sort : Terminal
LongDescription : Фильм окунет вас в опасный мир английского криминала. В центре истории — роковая особа Энни, предстающая в разных амплуа. Она ведет сложную игру с несколькими мужчинами, которых — на первый взгляд — ничто не связывает. Стравливая их друг с другом, она преследует свою жестокую цель.
AppleStoreCatalogID : 1368339199
Vendor : Apple:vendor_id:2018-908041
ContentRating : mpaa|Unrated|???|

Video #1
ID : 1
Format : AVC
Format/Info : Advanced Video Codec
Format profile : [email protected]
Format settings, CABAC : Yes
Format settings, ReFrames : 4 frames
Codec ID : avc1
Codec ID/Info : Advanced Video Coding
Duration : 1h 35mn
Bit rate : 5 218 Kbps
Width : 1 912 pixels
Height : 1 072 pixels
Display aspect ratio : 16:9
Frame rate mode : Variable
Frame rate : 23.976 fps
Minimum frame rate : 23.810 fps
Maximum frame rate : 24.390 fps
Color space : YUV
Chroma subsampling : 4:2:0
Bit depth : 8 bits
Scan type : Progressive
Bits/(Pixel*Frame) : 0.106
Stream size : 3.48 GiB (79%)
Title : Main Program
Language : English
Encoded date : UTC 2018-06-13 23:36:51
Tagged date : UTC 2018-06-13 23:38:32
Color range : Limited
Color primaries : BT.709
Transfer characteristics : BT.709
Matrix coefficients : BT.709

Video #2
ID : 10
Format : JPEG
Codec ID : jpeg
Duration : 1h 35mn
Bit rate mode : Variable
Bit rate : 479 bps
Width : 640 pixels
Height : 358 pixels
Display aspect ratio : 16:9
Frame rate mode : Variable
Frame rate : 0.002 fps
Minimum frame rate : 0.001 fps
Maximum frame rate : 0.006 fps
Color space : YUV
Chroma subsampling : 4:2:0
Bit depth : 8 bits
Compression mode : Lossy
Bits/(Pixel*Frame) : 1.045
Stream size : 263 KiB (0%)
Title : Chapter Images
Language : English
Encoded date : UTC 2018-06-13 23:38:35
Tagged date : UTC 2018-06-13 23:38:35

Audio #1
ID : 2
Format : AAC
Format/Info : Advanced Audio Codec
Format profile : LC
Codec ID : 40
Duration : 1h 35mn
Source duration : 1h 35mn
Bit rate mode : Variable
Bit rate : 157 Kbps
Maximum bit rate : 224 Kbps
Channel(s) : 2 channels
Channel positions : Front: L R
Sampling rate : 48.0 KHz
Compression mode : Lossy
Stream size : 107 MiB (2%)
Source stream size : 107 MiB (2%)
Title : Russian Stereo
Language : Russian
Encoded date : UTC 2018-06-13 23:36:51
Tagged date : UTC 2018-06-13 23:37:03

Audio #2
ID : 3
Format : AAC
Format/Info : Advanced Audio Codec
Format profile : LC
Codec ID : 40
Duration : 1h 35mn
Source duration : 1h 35mn
Bit rate mode : Variable
Bit rate : 158 Kbps
Maximum bit rate : 246 Kbps
Channel(s) : 2 channels
Channel positions : Front: L R
Sampling rate : 48.0 KHz
Compression mode : Lossy
Stream size : 108 MiB (2%)
Source stream size : 108 MiB (2%)
Title : English Stereo
Language : English
Encoded date : UTC 2018-06-13 23:36:51
Tagged date : UTC 2018-06-13 23:37:03

Audio #3
ID : 4
Format : AC-3
Format/Info : Audio Coding 3
Mode extension : CM (complete main)
Format settings, Endianness : Big
Codec ID : ac-3
Duration : 1h 35mn
Bit rate mode : Constant
Bit rate : 384 Kbps
Channel(s) : 6 channels
Channel positions : Front: L C R, Side: L R, LFE
Sampling rate : 48.0 KHz
Bit depth : 16 bits
Compression mode : Lossy
Stream size : 262 MiB (6%)
Title : Russian DD 5.1
Language : Russian
Encoded date : UTC 2018-06-13 23:36:51
Tagged date : UTC 2018-06-13 23:37:03

Audio #4
ID : 5
Format : AC-3
Format/Info : Audio Coding 3
Mode extension : CM (complete main)
Format settings, Endianness : Big
Codec ID : ac-3
Duration : 1h 35mn
Bit rate mode : Constant
Bit rate : 640 Kbps
Channel(s) : 6 channels
Channel positions : Front: L C R, Side: L R, LFE
Sampling rate : 48.0 KHz
Bit depth : 16 bits
Compression mode : Lossy
Stream size : 437 MiB (10%)
Title : English DD 5.1
Language : English
Encoded date : UTC 2018-06-13 23:36:51
Tagged date : UTC 2018-06-13 23:37:03

Text #1
ID : 6
Format : Timed Text
Muxing mode : sbtl
Codec ID : tx3g
Duration : 1h 32mn
Bit rate mode : Variable
Bit rate : 0 bps
Stream size : 293 Bytes (0%)
Title : Russian forced
Language : Russian
Encoded date : UTC 2018-06-13 23:36:51
Tagged date : UTC 2018-06-13 23:37:02

Text #2
ID : 7
Format : Timed Text
Muxing mode : sbtl
Codec ID : tx3g
Duration : 1h 31mn
Bit rate mode : Variable
Bit rate : 116 bps
Stream size : 77.4 KiB (0%)
Title : Russian full
Language : Russian
Encoded date : UTC 2018-06-13 23:36:51
Tagged date : UTC 2018-06-13 23:37:03

Text #3
ID : 8
Format : Timed Text
Muxing mode : sbtl
Codec ID : tx3g
Duration : 1h 35mn
Bit rate mode : Variable
Bit rate : 72 bps
Stream size : 50.0 KiB (0%)
Title : English full
Language : English
Encoded date : UTC 2018-06-13 23:36:51
Tagged date : UTC 2018-06-13 23:37:03

Menu #1
00:00:00.000 : 1
00:09:49.798 : 2
00:21:31.666 : 3
00:34:19.141 : 4
00:44:03.934 : 5
00:58:29.174 : 6
01:11:17.192 : 7
01:21:53.745 : 8
01:32:33.968 : 9

Menu #2
ID : 9
Codec ID : text
Duration : 1h 35mn
Language : English
Encoded date : UTC 2018-06-13 23:38:32
Tagged date : UTC 2018-06-13 23:38:32
Bit rate mode : CBR
00:00:00.000 : 1
00:09:49.798 : 2
00:21:31.666 : 3
00:34:19.141 : 4
00:44:03.934 : 5
00:58:29.174 : 6
01:11:17.192 : 7
01:21:53.745 : 8
01:32:33.968 : 9

Релиз подготовлен для просмотра на Apple TV, iPad, iPhone, iPod Touch.
Для просмотра данного релиза на компьютере с ОС Windows рекомендуется использовать VLC media player

Трекер:  [ 14-Июн-2018 12:36 ]

  

Скачать .torrent

Размер .torrent файла 44 KB


Размер: 4.38 GB
Хэш (hash) релиза: da00fd019006baf23ea3e25bfc6e4e61dbf2e946

Торренты, похожие на [ATV3] Конченая Terminal скачать торрент

Форум Название Автор Размер S L Добавлен
Видео (iPhone/iPod Touch/iPad) ·%· [ATV3] Конченая / Terminal (Вон Стайн / Vaughn Stein ) [2018, США, Триллер, драма, криминал, WEB-DL, HD (1080p)] AMAZON DUB + Original + sub (rus, eng) Galfimbul 77718722287.24 GB 0 0 1528932980

02:36

14-Июн-18

Еще никто не оставлял запись к записи скачать торрент [ATV3] Конченая Terminal . Будь первым!

!Обратная связь