Hase und Wolf | Lee Greenwood | BDRipVF Mythica: A Quest for Heroes

Скачать через торрент Убийство в Экс-ан-Провансе Meurtres a Aix-en-Provence Фильм бесплатно в хорошем качестве torrent

Скачивайте на UnionPeer.org фильмы через торрент без регистрации. Новинки кино в хорошем качестве через торрент. На UnionPeer.org можно скачать через торрент фильмы 2014 и 2015 годов. Самые новые фильмы.

Скачать торрент Убийство в Экс-ан-Провансе Meurtres a Aix-en-Provence бесплатно через .torrent фильм мультфильм сериал

Статистика раздачи
Размер:  2.1 GB   |    Зарегистрирован:  1 месяц 2 дня   |    .torrent скачан:  32 раза   |   
Раздают:  1  
   
загрузка...
 
Автор Сообщение

Galfimbul

avatar Galfimbul


Убийство в Экс-ан-Провансе
Meurtres à Aix-en-Provence
Страна: Франция, Бельгия, Швейцария
Жанр: детектив, драма
Год выпуска: 2017
Продолжительность: 01:31:02Перевод: Субтитры (русский перевод М.Кузиной, ECLAIR)
Субтитры: русские, английские, французские, немецкие, нидерландские
Оригинальная аудиодорожка: французский

Режиссер: Клод-Мишель Ром / Claude-Michel Rome

В ролях: Астрид Вейон / Astrid Veillon (Anne Giudicelli), Изабель Витари / Isabelle Vitari (Pauline Dorval), Андреа Ферреоль / Andréa Ferréol (Eléonore Dorval), Жереми Ковийо / Jérémie Covillault (Hugo Marciano), Франсуа Феролето / François Feroleto (Marc Lavander), Рено Леман / Renaud Leymans (Laurent Dorval)

Описание: Фильм из телевизионного цикла "Убийства в... / Meurtres à..." о трагических событиях, происходящих в разных городах Франции, расследованиях, ведущихся различными полицейскими детективами, где все преступления имеют под собой некую особенность - использование легенд и преданий прошлого.

В Экс-ан-Провансе, на юго-востоке Франции, серийный убийца в своих преступлениях следует пророчествам Нострадамуса. Первое тело обнаружено распятым в крипте кафедрального Собора Святого Спасителя. Капитан Анна Джудичелли объединяется со своей сводной сестрой, Полиной Дорваль, историком и экспертом по провидцу. Но давняя семейная ссора сказывается на взаимоотношениях сестер...

Доп. информация: Hot Bird (13.0°E) TV5MONDE Europe DVB-S


Качество видео: DVB
Формат видео: MKV

Видео: MPEG Video 2, [email protected] (16:9), 25 fps, ~3040 kbps avg, 0.293 bit/pixel
Аудио: MPEG Audio 2, 2 ch, 48 kHz, 192 kbps - французский
Формат субтитров: softsub (SRT)
100:00:19,648 --> 00:00:21,273Энзо!

200:00:25,292 --> 00:00:28,042Молодец, Энзо.

300:00:29,017 --> 00:00:31,517Хороший пес.

400:00:33,097 --> 00:00:34,972Пойдем.

500:00:49,619 --> 00:00:51,244Энзо!

600:01:40,014 --> 00:01:41,572Нет. Нет.

700:01:41,572 --> 00:01:43,947Прекратите!

800:01:44,655 --> 00:01:46,972Кто вы такой?

900:01:46,972 --> 00:01:49,171Что я вам сделал?

1000:01:49,171 --> 00:01:50,299Нет.

1100:01:50,299 --> 00:01:51,799Нет!

1200:01:55,890 --> 00:02:00,140УБИЙСТВО В ЭКС-АН-ПРОВАНСЕ

1300:02:29,934 --> 00:02:34,434ДорвальКультурное наследие

1400:02:35,612 --> 00:02:37,737Доченька!

1500:02:38,100 --> 00:02:39,815Как дела?

1600:02:39,815 --> 00:02:43,372-Как доехала?-Хорошо. Спасибо.

1700:02:43,372 --> 00:02:46,177-У тебя так мало вещей?-Я всего на 3 дня.

1800:02:46,177 --> 00:02:48,731-Забронировала отель...-Ни за что.

1900:02:48,731 --> 00:02:51,652Тебе приготовиликомнату на 2 этаже.

2000:02:51,652 --> 00:02:55,130-Все готово.-Как скажешь, мама.
GeneralUnique ID : 162944161481758274058474030637433139431 (0x7A95E76BA1B4444868D132337EC2B0E7)Complete name : [apreder]Meurtres_a_Aix-en-Provence(2017)DVB.mkvFormat : MatroskaFormat version : Version 2File size : 2.10 GiBDuration : 1 h 31 minOverall bit rate mode : VariableOverall bit rate : 3 298 kb/sMovie name : Meurtres а Aix-en-ProvenceReleased date : 2017-05-13Encoded date : UTC 2018-06-12 17:36:57Writing application : mkvmerge v24.0.0 ('Beyond The Pale') 64-bitWriting library : libebml v1.3.6 + libmatroska v1.4.9Cover : YesAttachments : cover.jpg / small_cover.jpgACTOR : Astrid Veillon, Isabelle Vitari, Andrea FerreolDIRECTOR : Claude-Michel RomeGENRE : Crime, Drama, MysteryIMDB : tt6620270KEYWORDS : rutracker.orgLAW_RATING : 16+

VideoID : 1Format : MPEG VideoFormat version : Version 2Format profile : [email protected] settings : CustomMatrix / BVOPFormat settings, BVOP : YesFormat settings, Matrix : CustomFormat settings, GOP : M=4, N=12Format settings, picture structure : FrameCodec ID : V_MPEG2Codec ID/Info : MPEG 1 or 2 VideoDuration : 1 h 31 minBit rate mode : VariableBit rate : 3 040 kb/sMaximum bit rate : 15.0 Mb/sWidth : 720 pixelsHeight : 576 pixelsDisplay aspect ratio : 16:9Active Format Description : Letterbox 16:9 imageFrame rate mode : ConstantFrame rate : 25.000 FPSStandard : PALColor space : YUVChroma subsampling : 4:2:0Bit depth : 8 bitsScan type : InterlacedScan order : Top Field FirstCompression mode : LossyBits/(Pixel*Frame) : 0.293Stream size : 1.93 GiB (92%)Default : YesForced : No

AudioID : 2Format : MPEG AudioFormat version : Version 1Format profile : Layer 2Format settings : Joint stereo / Intensity Stereo + MS StereoCodec ID : A_MPEG/L2Codec ID/Hint : MP2Duration : 1 h 31 minBit rate mode : ConstantBit rate : 192 kb/sChannel(s) : 2 channelsSampling rate : 48.0 kHzCompression mode : LossyStream size : 125 MiB (6%)Language : FrenchDefault : YesForced : No

Text #1ID : 3Format : UTF-8Codec ID : S_TEXT/UTF8Codec ID/Info : UTF-8 Plain TextLanguage : RussianDefault : NoForced : No

Text #2ID : 4Format : UTF-8Codec ID : S_TEXT/UTF8Codec ID/Info : UTF-8 Plain TextLanguage : EnglishDefault : NoForced : No

Text #3ID : 5Format : UTF-8Codec ID : S_TEXT/UTF8Codec ID/Info : UTF-8 Plain TextLanguage : FrenchDefault : NoForced : No

Text #4ID : 6Format : UTF-8Codec ID : S_TEXT/UTF8Codec ID/Info : UTF-8 Plain TextLanguage : GermanDefault : NoForced : No

Text #5ID : 7Format : UTF-8Codec ID : S_TEXT/UTF8Codec ID/Info : UTF-8 Plain TextLanguage : DutchDefault : NoForced : No


<div class="sp-wrap">
<div class="sp-head folded">Резервные скриншоты</div>
<div class="sp-body">

</div>
</div>
[4'228]

Трекер:  [ 14-Июн-2018 10:30 ]

  

Скачать .torrent

Размер .torrent файла 21 KB


Размер: 2.1 GB
Хэш (hash) релиза: 4ae443099bdc41bcc93a454b4d054c0d8ba9295b
Подписка на обновления:

Еще никто не оставлял запись к записи скачать торрент Убийство в Экс-ан-Провансе Meurtres a Aix-en-Provence . Будь первым!

!Обратная связь