Greg Nicotero | Laura Grey | Watch Episode

Скачать через торрент Дикое море России Russias Wild Sea Фильм бесплатно в хорошем качестве torrent

Скачивайте на UnionPeer.org фильмы через торрент без регистрации. Новинки кино в хорошем качестве через торрент. На UnionPeer.org можно скачать через торрент фильмы 2014 и 2015 годов. Самые новые фильмы.

Скачать торрент Дикое море России Russias Wild Sea бесплатно через .torrent фильм мультфильм сериал

Статистика раздачи
Размер:  2.2 GB   |    Зарегистрирован:  10 дней   |    .torrent скачан:  35 раз   |   
Раздают:  1  
   
загрузка...
 
Автор Сообщение

Galfimbul

avatar Galfimbul


Дикое море России / Russia's Wild Sea

Страна: Австрия
Студия: Interspot Film GMBH, National Geographic Channels, Nat Geo Wild, Orf-Enterprise
Жанр: Документальный, флора
Год выпуска: 2018
Продолжительность: 1 x ~ 00:43:58

Перевод: Профессиональный (дублированный)
Субтитры: нет
Оригинальная аудиодорожка: Английский

Режиссёр: Франц Хафнер / Franz Hafner

Описание: Охотское море лежит между полуостровом Камчатка и японским островом Хоккайдо - это последнее и самое большое из еще не загрязнённых цивилизацией морей на земле. Первая серия посвящена изучению тех вызовов, которые ставит перед животными безжалостная окружающая среда, а также методов адаптации животных и стратегий их выживания. А второй эпизод словно переносит нас в те времена, когда для животных вокруг было изобилие пищи. Красноголовые журавли исполняют свои брачные танцы на острове Хоккайдо, а лисицы охотятся за пятнистыми оленями.

Доп. информация:
Автор релиза -
Исходник - HDTV 1080i TS - моя запись с канала Nat Geo Wild HD

Сэмпл: http://yadi.sk/i/qulzxyKM3XrZqr

Рекламы нет!

Качество видео: HDTV 1080i
Формат видео: TS

Видео: MPEG-4, 1920x1080 (16:9), 25.000 fps, 6500 kbps, 0.125 bit/pixel
Аудио 1: Русский MP2, 48000 Гц, 2ch, 192 kbps
Аудио 2: Английский MP2, 48000 Гц, 2ch, 192 kbps
ОбщееИдентификатор : 1 (0x1)Полное имя : E:\Russias.Wild.Sea.2018.HDTV.1080i-ylnian\Russias.Wild.Sea.2018.HDTV.1080i-ylnian_1.tsФормат : MPEG-TSРазмер файла : 2,20 ГбайтПродолжительность : 43 м. 58 с.Режим общего битрейта : ПеременныйОбщий поток : 7172 Кбит/сек

ВидеоИдентификатор : 2061 (0x80D)Идентификатор меню : 2060 (0x80C)Формат : AVCФормат/Информация : Advanced Video CodecПрофиль формата : [email protected]Настройки формата : CABAC / 2 Ref FramesПараметр CABAC формата : ДаПараметр RefFrames формата : 2 кадраИдентификатор кодека : 27Продолжительность : 43 м. 58 с.Вид битрейта : ПостоянныйБитрейт : 6500 Кбит/секШирина : 1920 пикселейВысота : 1080 пикселейСоотношение сторон : 16:9Частота кадров : 25,000 кадров/секЦветовое пространство : YUVСубдискретизация насыщенности : 4:2:0Битовая глубина : 8 битТип развёртки : ЧересстрочнаяМетод сохранения типа развёртки : Раздельные поляПорядок развёртки : Верхнее поле первоеБит/(Пиксели*Кадры) : 0.125Размер потока : 1,98 Гбайт (90%)

Аудио #1Идентификатор : 2062 (0x80E)Идентификатор меню : 2060 (0x80C)Формат : MPEG AudioВерсия формата : Version 1Профиль формата : Layer 2Идентификатор кодека : 3Продолжительность : 43 м. 58 с.Вид битрейта : ПостоянныйБитрейт : 192 Кбит/секКаналы : 2 каналаЧастота : 48,0 КГцЧастота кадров : 41,667 кадра/сек (1152 SPF)Метод сжатия : С потерямиРазмер потока : 60,4 Мбайт (3%)Язык : Russian

Аудио #2Идентификатор : 2063 (0x80F)Идентификатор меню : 2060 (0x80C)Формат : MPEG AudioВерсия формата : Version 1Профиль формата : Layer 2Идентификатор кодека : 3Продолжительность : 43 м. 58 с.Вид битрейта : ПостоянныйБитрейт : 192 Кбит/секКаналы : 2 каналаЧастота : 48,0 КГцЧастота кадров : 41,667 кадра/сек (1152 SPF)Метод сжатия : С потерямиРазмер потока : 60,4 Мбайт (3%)Язык : English
(1) остановить скачивание,
(2) удалить старый торрент у себя из клиента (старые серии удалять не надо),
(3) скачать новый торрент и запустить его у себя в клиенте вместо старого, при этом указать клиенту путь в старую папку куда и должно происходить скачивание новых серий.
Ваш клиент при этом должен произвести хеширование (проверку) старой папки (если не производит сам - помогите ему сделать это), и будет докачивать только те серии которых у вас ещё нет. Старые серии при этом не удаляются, а продолжают раздаваться!
Eсли вы уже удалили старые серии, то предотвратить повторную закачку старых серий можно, отжав галочку в соответсвующих местах при запуске нового торрента. По возможности, желательно не удалять старые серии как можно дольше чтобы релизёр не столько продолжал раздавать старые серии, а смог сконцентрироваться на новых.


Трекер:  [ 14-Июн-2018 09:06 ]

  

Скачать .torrent

Размер .torrent файла 11 KB


Размер: 2.2 GB
Хэш (hash) релиза: 71016f499f3d151894b7fbe9e01570cfb3461b35
Подписка на обновления:

Еще никто не оставлял запись к записи скачать торрент Дикое море России Russias Wild Sea . Будь первым!

!Обратная связь