My Hero Academia Saison 3 episode 6 VOSTFR | 소리바다 - Soribada | Lezz- A- Faire (2016)

Скачать через торрент Жирным шрифтом The Bold Type Фильм бесплатно в хорошем качестве torrent

Скачивайте на UnionPeer.org фильмы через торрент без регистрации. Новинки кино в хорошем качестве через торрент. На UnionPeer.org можно скачать через торрент фильмы 2014 и 2015 годов. Самые новые фильмы.

Скачать торрент Жирным шрифтом The Bold Type бесплатно через .torrent фильм мультфильм сериал

Статистика раздачи
Размер:  2.32 GB   |    Зарегистрирован:  1 месяц 2 дня   |    .torrent скачан:  29 раз   |   
Раздают:  1  
   
загрузка...
 
Автор Сообщение

Galfimbul

avatar Galfimbul


Жирным шрифтом / The Bold Type

Год выпуска: 2018
Страна: США
Жанр: Драма, детектив, комедия
Продолжительность: 00:45:00

Перевод: Профессиональный (двухголосый закадровый) [Gears Media]

Режиссёр: Гэри Фледер
В ролях: Марчелло Ди Фруща, Мелисса Плант, Дэн Джиннотт, Адам Каприоло, Аиша Ди, Мэган Фэйхи, Сэмюэл Пейдж, Кэти Стивенс, Мэтт Уорд и др.

Описание: Сюжет сериала расскажет о первых шагах в индустрии главного редактора журнала Cosmopolitan и исполнительного директора по контенту Hearst Magazine Джоанны Коулз. В центре внимания проекта оказываются три девушки, представляющие один современный модный журнал. Героини живут в Нью-Йорке и наслаждаются своим оглушительным успехом на работе. Однако в личной жизни пока что все не так хорошо и радужно, как могло бы показаться. Главные героини стремятся за всеми новинками моды, забывая о естественности и природной красоте. Нередко на их пути попадаются состоятельные мужчины, которых волнует лишь их светский образ. Однако главные героини начинают понимать, что в жизни самое главное не карьера. Да и дружба не должна уходить на второе место! Посмотрим, получится ли им покорить мужчин своей мечты.

Ссылка на предыдущие и альтернативные раздачи: http://rutracker.org/forum/tracker.php?g=foreign_se...nm=The+Bold+Type

Сэмпл: http://multi-up.com/1201490

Качество: WEB-DL 720p
Формат: MKV
Видео: X264, 1280x720 at 23.976 fps, ~3000 kbps avg
Аудио1: Russian, AC3, 48 kHz, 2 ch, 384 kbps
Аудио2: English, ЕAC3, 48 kHz, 6 ch, 640 kbps
Субтитры: нет
Реклама: аудио (два раза, в начале и конце, по 12 сек.)
Format : Matroska
Format version : Version 4 / Version 2
File size : 1.18 GiB
Duration : 41 min 48 s
Overall bit rate : 4 041 kb/s
Encoded date : UTC 2018-06-14 04:58:15
Writing application : mkvmerge v22.0.0 ('At The End Of The World') 64-bit
Writing library : libebml v1.3.5 + libmatroska v1.4.8

Video
ID : 1
Format : AVC
Format/Info : Advanced Video Codec
Format profile : [email protected]
Format settings : CABAC / 5 Ref Frames
Format settings, CABAC : Yes
Format settings, ReFrames : 5 frames
Codec ID : V_MPEG4/ISO/AVC
Duration : 41 min 48 s
Bit rate : 3 015 kb/s
Width : 1 280 pixels
Height : 720 pixels
Display aspect ratio : 16:9
Frame rate mode : Constant
Frame rate : 23.976 (24000/1001) FPS
Color space : YUV
Chroma subsampling : 4:2:0
Bit depth : 8 bits
Scan type : Progressive
Bits/(Pixel*Frame) : 0.136
Stream size : 902 MiB (75%)
Default : Yes
Forced : No
Color range : Limited
Color primaries : BT.709
Transfer characteristics : BT.709
Matrix coefficients : BT.709

Audio #1
ID : 2
Format : AC-3
Format/Info : Audio Coding 3
Codec ID : A_AC3
Duration : 41 min 48 s
Bit rate mode : Constant
Bit rate : 384 kb/s
Channel(s) : 2 channels
Channel positions : Front: L R
Sampling rate : 48.0 kHz
Frame rate : 31.250 FPS (1536 SPF)
Bit depth : 16 bits
Compression mode : Lossy
Stream size : 115 MiB (10%)
Title : Gears Media
Language : Russian
Service kind : Complete Main
Default : Yes
Forced : Yes

Audio #2
ID : 3
Format : E-AC-3
Format/Info : Enhanced Audio Coding 3
Codec ID : A_EAC3
Duration : 41 min 48 s
Bit rate mode : Constant
Bit rate : 640 kb/s
Channel(s) : 6 channels
Channel positions : Front: L C R, Side: L R, LFE
Sampling rate : 48.0 kHz
Frame rate : 187.500 FPS (256 SPF)
Compression mode : Lossy
Stream size : 191 MiB (16%)
Language : English
Service kind : Complete Main
Default : No
Forced : No
<div class="sp-wrap">
<div class="sp-head folded">Внимание! Раздача ведётся путём добавления новых серий</div>
<div class="sp-body">[b]Внимание! Раздача ведётся путём добавления новых серий; при каждом добавлении создаётся новый торрент. Чтобы начать докачку новой серии, пользователям необходимо сделать следующее:
(1) остановить скачивание,
(2) удалить старый торрент у себя из клиента (старые серии удалять не надо),
(3) скачать новый торрент и запустить его у себя в клиенте вместо старого, при этом указать клиенту путь в старую папку куда и должно происходить скачивание новых серий.

Eсли вы уже удалили старые серии, то предотвратить повторную закачку старых серий можно, отжав галочку в соответствующих местах при запуске нового торрента. По возможности, желательно не удалять старые серии как можно дольше чтобы релизёр не столько продолжал раздавать старые серии, а смог сконцентрироваться на новых.</div>
</div>

Трекер:  [ 14-Июн-2018 08:48 ]

  

Скачать .torrent

Размер .torrent файла 12 KB


Размер: 2.32 GB
Хэш (hash) релиза: ca99b499b70cfdb6711764ca39b4a3e0475fc78e
Подписка на обновления:

Еще никто не оставлял запись к записи скачать торрент Жирным шрифтом The Bold Type . Будь первым!

!Обратная связь