blank face | Team Edge | Восемь бусин на тонкой ниточке [01-02 из 02] (2017) SATRip-AVC

Скачать через торрент Убийства в Сен-Мало Meurtres a Saint-Malo Фильм бесплатно в хорошем качестве torrent

Скачивайте на UnionPeer.org фильмы через торрент без регистрации. Новинки кино в хорошем качестве через торрент. На UnionPeer.org можно скачать через торрент фильмы 2014 и 2015 годов. Самые новые фильмы.

Скачать торрент Убийства в Сен-Мало Meurtres a Saint-Malo бесплатно через .torrent фильм мультфильм сериал

Статистика раздачи
Размер:  2.11 GB   |    Зарегистрирован:  1 месяц 8 дней   |    .torrent скачан:  29 раз   |   
Раздают:  1  
   
загрузка...
 
Автор Сообщение

Galfimbul

avatar Galfimbul


Убийства в Сен-Мало
Meurtres à Saint-Malo
Страна: Франция, Бельгия
Жанр: детектив
Год выпуска: 2013
Продолжительность: 01:30:27Перевод: Профессиональный (двухголосый закадровый) Компания "ИГМАР" по заказу канала "Еврокино"
Субтитры: русские (перевод М. Кузиной, Éclair Group), английские, французские, немецкие, нидерландские
Оригинальная аудиодорожка: французский

Режиссер: Лионель Байю / Lionel Bailliu

В ролях: Луиз Моно / Louise Monot (Gwenaële Garrec), Брюно Соло / Bruno Solo (Eric Vautier), Сванн Арло / Swann Arlaud (Loïc), Орельен Вик / Aurélien Wiik (Ronan), Патрик Рейналь / Patrick Raynal (Alexandre Fontaine)

Описание: Фильм из телевизионного цикла "Убийства в... / Meurtres à..." о трагических событиях, происходящих в разных городах Франции, расследованиях, ведущихся различными полицейскими детективами, где все преступления имеют под собой некую особенность - использование легенд и преданий прошлого.

Полиция расследует странные обстоятельства убийства мужчины, обнаруженного закопанным по горло в песок на пляже Сен-Мало. Следы от пыток на теле жертвы указывают на то, что, возможно, это дело рук пиратов, т.к. очень напоминают почерк корсаров XVII века…

Доп. информация: Hot Bird (13.0°E) TV5MONDE Europe DVB-S. За русскую звуковую дорожку и синхронизацию благодарность cooman1.


Качество видео: DVB
Формат видео: MKV

Видео: MPEG Video 2, [email protected] (16:9), 25 fps, ~2885 kbps avg, 0.278 bit/pixel
Аудио 1: AC3, 2 ch, 48 kHz, 192 kbps - русский
Аудио 2: MPEG Audio 2, 2 ch, 48 kHz, 192 kbps - французский
Формат субтитров: softsub (SRT)
100:00:21,448 --> 00:00:24,448Запретная зонаНациональная жандармерия

200:00:30,453 --> 00:00:33,453УБИЙСТВА В СЕН-МАЛО

300:00:36,693 --> 00:00:39,693Лейтенант Гаррек, угро Ренна.Где найти старшину Вотье?

400:00:40,890 --> 00:00:43,890Быстрее.Через час начнется прилив.

500:00:44,772 --> 00:00:46,931Все сделать не успеем,

600:00:46,931 --> 00:00:49,931но нельзя ударить в грязь лицомперед ментом,

700:00:49,972 --> 00:00:52,409которого из Ренна пришлют.

800:00:52,409 --> 00:00:55,052Рада познакомиться.

900:00:55,052 --> 00:00:57,736Лейтенант Гаррек.

1000:00:57,736 --> 00:00:59,526Старшина Вотье.

1100:00:59,526 --> 00:01:01,451Что произошло?

1200:01:01,451 --> 00:01:04,093Почему прокурорвас сюда направил?

1300:01:04,093 --> 00:01:07,093Сказал, что ваша работаоставляет желать лучшего.

1400:01:07,218 --> 00:01:10,218Расскажите о происшествии,а не о своих переживаниях.

1500:01:10,688 --> 00:01:12,693"Оставляет желать лучшего..."

1600:01:12,693 --> 00:01:15,693-Должна же быть причина.-Да...

1700:01:16,529 --> 00:01:19,529Прошу внимания.

1800:01:20,494 --> 00:01:23,012Тем, кто еще не в курсе,сообщаю:

1900:01:23,012 --> 00:01:24,455прокурор г-жа Геган

2000:01:24,455 --> 00:01:27,455считает, что моя работаоставляет желать лучшего.
GeneralUnique ID : 254162213099001823073321880722893051303 (0xBF35DC97F8D97B7B3D0713BFECFA15A7)Complete name : [apreder]Meurtres_a_Saint-Malo(2013)DVB.mkvFormat : MatroskaFormat version : Version 2File size : 2.11 GiBDuration : 1 h 30 minOverall bit rate : 3 335 kb/sMovie name : Meurtres à Saint-MaloReleased date : 2013-04-23Encoded date : UTC 2018-06-14 05:23:31Writing application : mkvmerge v24.0.0 ('Beyond The Pale') 64-bitWriting library : libebml v1.3.6 + libmatroska v1.4.9Cover : YesAttachments : cover.jpg / small_cover.jpgACTOR : Bruno Solo, Louise Monot, Swann ArlaudDIRECTOR : Lionel BailliuGENRE : CrimeIMDB : tt2841620KEYWORDS : rutracker.orgLAW_RATING : 16+

VideoID : 1Format : MPEG VideoFormat version : Version 2Format profile : [email protected] settings : CustomMatrix / BVOPFormat settings, BVOP : YesFormat settings, Matrix : CustomFormat settings, GOP : VariableFormat settings, picture structure : FrameCodec ID : V_MPEG2Codec ID/Info : MPEG 1 or 2 VideoDuration : 1 h 30 minBit rate mode : ConstantBit rate : 2 885 kb/sMaximum bit rate : 3 200 kb/sWidth : 720 pixelsHeight : 576 pixelsDisplay aspect ratio : 16:9Frame rate mode : ConstantFrame rate : 25.000 FPSStandard : PALColor space : YUVChroma subsampling : 4:2:0Bit depth : 8 bitsScan type : InterlacedScan order : Top Field FirstCompression mode : LossyBits/(Pixel*Frame) : 0.278Stream size : 1.82 GiB (86%)Default : YesForced : No

Audio #1ID : 2Format : AC-3Format/Info : Audio Coding 3Codec ID : A_AC3Duration : 1 h 30 minBit rate mode : ConstantBit rate : 192 kb/sChannel(s) : 2 channelsChannel positions : Front: L RSampling rate : 48.0 kHzFrame rate : 31.250 FPS (1536 SPF)Bit depth : 16 bitsCompression mode : LossyStream size : 124 MiB (6%)Language : RussianService kind : Complete MainDefault : YesForced : No

Audio #2ID : 3Format : MPEG AudioFormat version : Version 1Format profile : Layer 2Format settings : Joint stereo / Intensity Stereo + MS StereoCodec ID : A_MPEG/L2Codec ID/Hint : MP2Duration : 1 h 30 minBit rate mode : ConstantBit rate : 192 kb/sChannel(s) : 2 channelsSampling rate : 48.0 kHzCompression mode : LossyStream size : 124 MiB (6%)Language : FrenchDefault : NoForced : No

Text #1ID : 4Format : UTF-8Codec ID : S_TEXT/UTF8Codec ID/Info : UTF-8 Plain TextLanguage : RussianDefault : NoForced : No

Text #2ID : 5Format : UTF-8Codec ID : S_TEXT/UTF8Codec ID/Info : UTF-8 Plain TextLanguage : EnglishDefault : NoForced : No

Text #3ID : 6Format : UTF-8Codec ID : S_TEXT/UTF8Codec ID/Info : UTF-8 Plain TextLanguage : FrenchDefault : NoForced : No

Text #4ID : 7Format : UTF-8Codec ID : S_TEXT/UTF8Codec ID/Info : UTF-8 Plain TextLanguage : GermanDefault : NoForced : No

Text #5ID : 8Format : UTF-8Codec ID : S_TEXT/UTF8Codec ID/Info : UTF-8 Plain TextLanguage : DutchDefault : NoForced : No


<div class="sp-wrap">
<div class="sp-head folded">Резервные скриншоты</div>
<div class="sp-body">

</div>
</div>
[1'218]

Трекер:  [ 14-Июн-2018 08:30 ]

  

Скачать .torrent

Размер .torrent файла 21 KB


Размер: 2.11 GB
Хэш (hash) релиза: 7977a7063a399d3870d006f6915ed1a7d590fc60
Подписка на обновления:

Торренты, похожие на Убийства в Сен-Мало Meurtres a Saint-Malo скачать торрент

Форум Название Автор Размер S L Добавлен
Зарубежные фильмы до 2016 ·· Убийства в Сен-Мало / Meurtres a Saint-Malo (Лионель Байю / Lionel Bailliu) [2013, Франция, Бельгия, детектив, DVB] Original (Fre) + Sub (Rus, Eng, Fre, Deu) Galfimbul 21322670341.99 GB 0 0 1485105888

20:24

22-Янв-17

Еще никто не оставлял запись к записи скачать торрент Убийства в Сен-Мало Meurtres a Saint-Malo . Будь первым!

!Обратная связь