One Piece Chapter 883: | Season 3 Episode 16 And the ATM | Gender Bender

Скачать через торрент Конченая Terminal Фильм бесплатно в хорошем качестве torrent

Скачивайте на UnionPeer.org фильмы через торрент без регистрации. Новинки кино в хорошем качестве через торрент. На UnionPeer.org можно скачать через торрент фильмы 2014 и 2015 годов. Самые новые фильмы.

Скачать торрент Конченая Terminal бесплатно через .torrent фильм мультфильм сериал

Статистика раздачи
Размер:  6.98 GB   |    Зарегистрирован:  7 дней   |    .torrent скачан:  145 раз   |   
Раздают:  1  
   
загрузка...
 
Автор Сообщение

Galfimbul

avatar Galfimbul


Конченая /Terminal

Год выхода: 2018
Жанр: Триллер, драма, криминал
Режиссер: Вон Стайн
В ролях: Марго Робби, Майк Майерс, Саймон Пегг, Макс Айронс, Декстер Флетчер, Мэттью Льюис, Катарина Час, Ник Моран, Томас Тургус, Джордан Данн



О фильме: Фильм окунет вас в опасный мир английского криминала. В центре истории — роковая особа Энни, предстающая в разных амплуа. Она ведет сложную игру с несколькими мужчинами, которых — на первый взгляд — ничто не связывает. Стравливая их друг с другом, она преследует свою жестокую цель.

Страна: Великобритания, Гонконг, Венгрия, США, Ирландия
Студия: Beagle Pug Films, Hassell Free Production, Highland Film Group
Продолжительность: 01:35:32
Перевод(ы):
#1: Дублированный | iTunes
#2: Профессиональный многоголосый | HDRezka Studio


Качество: WEB-DL 1080p | AMAZON Version
Видео: MPEG-4 AVC, 1920x1080, 9498 Kbit/s, 23.976 fps
Звук:
Аудио #01: 48 kHz, AC3, 5.1, 384 Kbps | iTunes | RUS |
Аудио #02: 48 kHz, AC3, 2.0, 192 Kbps | HDRezka | RUS |
Аудио #03: 48 kHz, AC3, 5.1, 384 Kbps | Оригинал | ENG |
Субтитры: Русские (forced, full), английские

General
Unique ID : 240954052076985065601892341092477801640 (0xB5460FFA35BEA308A0EF8CBEC50394A8)
Complete name : E:VideoTerminal.2018.AMZN.WEB-DL.1080p.ExKinoRay.mkv
Format : Matroska
Format version : Version 4 / Version 2
File size : 6.98 GiB
Duration : 1 h 35 min
Overall bit rate mode : Variable
Overall bit rate : 10.5 Mb/s
Movie name : Terminal 2018 from ExKinoRay
Encoded date : UTC 2018-06-13 18:57:19
Writing application : mkvmerge v7.3.0 ('Nouages') 64bit built on Oct 22 2014 18:53:34
Writing library : libebml v1.3.0 + libmatroska v1.4.1

Video
ID : 1
Format : AVC
Format/Info : Advanced Video Codec
Format profile : [email protected]
Format settings : CABAC / 4 Ref Frames
Format settings, CABAC : Yes
Format settings, ReFrames : 4 frames
Codec ID : V_MPEG4/ISO/AVC
Duration : 1 h 35 min
Bit rate mode : Variable
Bit rate : 9 498 kb/s
Maximum bit rate : 15.0 Mb/s
Width : 1 920 pixels
Height : 1 080 pixels
Display aspect ratio : 16:9
Frame rate mode : Constant
Frame rate : 23.976 (24000/1001) FPS
Color space : YUV
Chroma subsampling : 4:2:0
Bit depth : 8 bits
Scan type : Progressive
Bits/(Pixel*Frame) : 0.191
Stream size : 6.34 GiB (91%)
Language : English
Default : Yes
Forced : No
Color range : Limited
Color primaries : BT.709
Transfer characteristics : BT.709
Matrix coefficients : BT.709

Audio #1
ID : 2
Format : AC-3
Format/Info : Audio Coding 3
Codec ID : A_AC3
Duration : 1 h 35 min
Bit rate mode : Constant
Bit rate : 384 kb/s
Channel(s) : 6 channels
Channel positions : Front: L C R, Side: L R, LFE
Sampling rate : 48.0 kHz
Frame rate : 31.250 FPS (1536 SPF)
Bit depth : 16 bits
Compression mode : Lossy
Stream size : 262 MiB (4%)
Title : iTunes
Language : Russian
Service kind : Complete Main
Default : Yes
Forced : Yes

Audio #2
ID : 3
Format : AC-3
Format/Info : Audio Coding 3
Codec ID : A_AC3
Duration : 1 h 35 min
Bit rate mode : Constant
Bit rate : 192 kb/s
Channel(s) : 2 channels
Channel positions : Front: L R
Sampling rate : 48.0 kHz
Frame rate : 31.250 FPS (1536 SPF)
Bit depth : 16 bits
Compression mode : Lossy
Stream size : 131 MiB (2%)
Title : MVO [HDrezka Studio]
Language : Russian
Service kind : Complete Main
Default : No
Forced : No

Audio #3
ID : 4
Format : AC-3
Format/Info : Audio Coding 3
Codec ID : A_AC3
Duration : 1 h 35 min
Bit rate mode : Constant
Bit rate : 384 kb/s
Channel(s) : 6 channels
Channel positions : Front: L C R, Side: L R, LFE
Sampling rate : 48.0 kHz
Frame rate : 31.250 FPS (1536 SPF)
Bit depth : 16 bits
Compression mode : Lossy
Stream size : 262 MiB (4%)
Title : Original
Language : English
Service kind : Complete Main
Default : No
Forced : No

Text #1
ID : 5
Format : UTF-8
Codec ID : S_TEXT/UTF8
Codec ID/Info : UTF-8 Plain Text
Duration : 1 h 24 min
Bit rate : 0 b/s
Count of elements : 12
Stream size : 276 Bytes (0%)
Title : Forced
Language : Russian
Default : Yes
Forced : Yes

Text #2
ID : 6
Format : UTF-8
Codec ID : S_TEXT/UTF8
Codec ID/Info : UTF-8 Plain Text
Duration : 1 h 30 min
Bit rate : 107 b/s
Count of elements : 1504
Stream size : 70.6 KiB (0%)
Title : Full
Language : Russian
Default : No
Forced : No

Text #3
ID : 7
Format : UTF-8
Codec ID : S_TEXT/UTF8
Codec ID/Info : UTF-8 Plain Text
Duration : 1 h 33 min
Bit rate : 64 b/s
Count of elements : 1546
Stream size : 44.7 KiB (0%)
Title : Full
Language : English
Default : No
Forced : No

Text #4
ID : 8
Format : UTF-8
Codec ID : S_TEXT/UTF8
Codec ID/Info : UTF-8 Plain Text
Duration : 1 h 34 min
Bit rate : 70 b/s
Count of elements : 1651
Stream size : 48.8 KiB (0%)
Title : SDH
Language : English
Default : No
Forced : No

Menu
00:00:00.000 : en:1
00:09:49.798 : en:2
00:21:31.666 : en:3
00:34:19.141 : en:4
00:44:03.934 : en:5
00:58:29.174 : en:6
01:11:17.192 : en:7
01:21:53.745 : en:8
01:32:33.968 : en:9
Подпишись на меня, кликни по картинке [b]> : [/b]

Источник http://blator.org

Трекер:  [ 14-Июн-2018 00:40 ]

  

Скачать .torrent

Размер .torrent файла 9 KB


Размер: 6.98 GB
Хэш (hash) релиза: 44a918e92bfc5903644505511188da1ceea20b90
Подписка на обновления:

Торренты, похожие на Конченая Terminal скачать торрент

Форум Название Автор Размер S L Добавлен
Зарубежные фильмы 2016-2018 (Новинки зарубежного кино) ·%· Конченая / Terminal (2018) WEB-DLRip-AVC от ivanes20031987 | iTunes Galfimbul 781760618746 MB 0 0 1528925479

00:31

14-Июн-18

Зарубежные фильмы 2016-2018 (Новинки зарубежного кино) ·%· Конченая / Terminal (2018) WEB-DL 1080p от ExKinoRay | D, P | iTunes Galfimbul 44289935984.12 GB 0 0 1528920456

23:07

13-Июн-18

Зарубежные фильмы 2016-2018 (Новинки зарубежного кино) ·· Конченая / Terminal (Вон Стайн / Vaughn Stein) [2018, Ирландия, Великобритания, Гонконг, Венгрия, США, триллер, криминал, драма, WEB-DLRip-AVC] HDrezka Studio Galfimbul 772181141736 MB 0 0 1526751015

20:30

19-Май-18

Зарубежные фильмы 2016-2018 (Новинки зарубежного кино) ·· Конченая / Terminal (Вон Стайн / Vaughn Stein) [2018, Ирландия, Великобритания, Гонконг, Венгрия, США, триллер, криминал, драма, WEB-DL 1080p] HDrezka Studio Galfimbul 74035204496.9 GB 0 0 1526678418

00:20

19-Май-18

Зарубежные фильмы до 2016 ·· Конченая / Terminal (Вон Стайн / Vaughn Stein) [2018, Ирландия, Великобритания, Гонконг, Венгрия, США, триллер, криминал, драма, WEB-DL 1080p] MVO (MuzOboz) + Original Eng + Sub (Eng, Spa) Galfimbul 77243323317.19 GB 0 0 1526473845

15:30

16-Май-18

Еще никто не оставлял запись к записи скачать торрент Конченая Terminal . Будь первым!

!Обратная связь