Kurzfilme | Li-Wu Tai | Ben 10 2016 S02E17 Super-Villain Team-Up 720p WEB-DL AAC2 0 H 264-YFN

Скачать через торрент Дедушка легкого поведения Dirty Grandpa Фильм бесплатно в хорошем качестве torrent

Скачивайте на UnionPeer.org фильмы через торрент без регистрации. Новинки кино в хорошем качестве через торрент. На UnionPeer.org можно скачать через торрент фильмы 2014 и 2015 годов. Самые новые фильмы.

Скачать торрент Дедушка легкого поведения Dirty Grandpa бесплатно через .torrent фильм мультфильм сериал

Статистика раздачи
Размер:  50.07 GB   |    Зарегистрирован:  7 дней   |    .torrent скачан:  38 раз   |   
Раздают:  1  
   
загрузка...
 
Автор Сообщение

Galfimbul

avatar Galfimbul


Дедушка легкого поведения
Dirty Grandpa


Информация о фильме
Дедушка легкого поведения / Dirty Grandpa

Год выпуска: 2016
Жанр: Комедия
Выпущено: США, Lionsgate, QED International, Josephson Entertainment
Режиссер: Дэн Мазер
В ролях: Роберт Де Ниро, Зак Эфрон, Зои Дойч, Обри Плаза, Джейсон Манцукас, Дермот Малруни, Джулианна Хаф, Джеффри Бауэр-Чепман, Брэндон Майкал Смит, Джейк Пикинг, Майкл Хадсон, Адам Палли, Мо Коллинз, Генри Жебровский, Катрин Дайер, Дина Дилл, Лэйн Кэрлок, Кристофер Сеттикейс, Эрик Гойнс, Гэвин Мунн
Продолжительность: 01:42:21

Описание:

Джейсон, покладистый правильный парень, накануне свадьбы вляпывается в увеселительную поездку к морю со своим дедом, отставным генералом с легким нравом, бурной фантазией и вполне определенными потребностями… И, похоже, дедские каникулы изменят жизнь Джейсона навсегда!





Файл
Контейнер: MKV
Качество: BDRemux 2160p

Видео: HEVC, 3840x2160 (16:9), 23.976 fps, 64.6 Mb/s (0.325 bit/pixel)

Аудио #1: AC-3, 48.0 kHz, 6 ch, 384 kb/s, CBR (Russian) | Дублированный |
Аудио #2: TrueHD+Atmos, 48.0 kHz, 8 ch, 4784 kb/s, VBR (English) | Original |
Аудио #3: AC-3, 48.0 kHz, 6 ch, 448 kb/s, CBR (English) | Original |
Общее
Уникальный идентификатор : 236750866921577353280373069766327796684 (0xB21C8EF310DAB14AE803467FEB6803CC)
Полное имя : Dirty.Grandpa.2016.Theatrical.Cut.UHD.BDRemux.2160p.4K.UltraHD.HEVC.HDR.IVA(RUS.ENG).ExKinoRay.mkv
Формат : Matroska
Версия формата : Version 4 / Version 2
Размер файла : 50,1 Гбайт
Продолжительность : 1 ч. 42 м.
Режим общего битрейта : Переменный
Общий поток : 70,3 Мбит/сек
Название фильма : Дедушка легкого поведения / Dirty Grandpa ( 2016 ) UHD BDRemux | HDR, 4K | IVA(RUS.ENG) | ExKinoRay
Дата кодирования : UTC 2018-06-13 15:34:07
Программа кодирования : mkvmerge v24.0.0 ('Beyond The Pale') 64-bit
Библиотека кодирования : libebml v1.3.6 + libmatroska v1.4.9
Обложка : Yes
Attachments : cover

Видео
Идентификатор : 1
Формат : HEVC
Формат/Информация : High Efficiency Video Coding
Коммерческое название : HDR10
Профиль формата : Main [email protected]@High
Идентификатор кодека : V_MPEGH/ISO/HEVC
Продолжительность : 1 ч. 42 м.
Битрейт : 64,6 Мбит/сек
Ширина : 3840 пикселей
Высота : 2160 пикселей
Соотношение сторон : 16:9
Режим частоты кадров : Постоянный
Частота кадров : 23,976 (24000/1001) кадра/сек
Цветовое пространство : YUV
Субдискретизация насыщенности : 4:2:0 (Type 2)
Битовая глубина : 10 бит
Бит/(Пиксели*Кадры) : 0.325
Размер потока : 46,0 Гбайт (92%)
Default : Да
Forced : Нет
Цветовой диапазон : Limited
Основные цвета : BT.2020
Характеристики трансфера : PQ
Коэффициенты матрицы : BT.2020 non-constant
MasteringDisplay_Luminance : min: 0.0050 cd/m2, max: 1000 cd/m2
MaxCLL : 1000 cd/m2
MaxFALL : 427 cd/m2

Аудио #1
Идентификатор : 2
Формат : AC-3
Формат/Информация : Audio Coding 3
Идентификатор кодека : A_AC3
Продолжительность : 1 ч. 42 м.
Вид битрейта : Постоянный
Битрейт : 384 Кбит/сек
Каналы : 6 каналов
Расположение каналов : Front: L C R, Side: L R, LFE
Частота : 48,0 КГц
Частота кадров : 31,250 кадров/сек (1536 SPF)
Битовая глубина : 16 бит
Метод сжатия : С потерями
Размер потока : 280 Мбайт (1%)
Заголовок : | Дублированный, iTunes |
Язык : Russian
ServiceKind : Complete Main
Default : Да
Forced : Нет

Аудио #2
Идентификатор : 3
Формат : TrueHD
Профиль формата : TrueHD+Atmos / TrueHD
Идентификатор кодека : A_TRUEHD
Продолжительность : 1 ч. 42 м.
Вид битрейта : Переменный
Битрейт : 4784 Кбит/сек
Максимальный битрейт : 8778 Кбит/сек
Каналы : Object Based / 8 каналов
Расположение каналов : Object Based / Front: L C R, Side: L R, Back: L R, LFE
Частота : / 48,0 КГц
Частота кадров : 1200,000 кадров/сек (40 SPF)
Метод сжатия : Без потерь
Размер потока : 3,41 Гбайт (7%)
Заголовок : | Original |
Язык : English
Default : Нет
Forced : Нет

Аудио #3
Идентификатор : 4
Формат : AC-3
Формат/Информация : Audio Coding 3
Идентификатор кодека : A_AC3
Продолжительность : 1 ч. 42 м.
Вид битрейта : Постоянный
Битрейт : 448 Кбит/сек
Каналы : 6 каналов
Расположение каналов : Front: L C R, Side: L R, LFE
Частота : 48,0 КГц
Частота кадров : 31,250 кадров/сек (1536 SPF)
Битовая глубина : 16 бит
Метод сжатия : С потерями
Задержка видео : 28 мс.
Размер потока : 327 Мбайт (1%)
Заголовок : | Original, AC3 Core |
Язык : English
ServiceKind : Complete Main
Default : Нет
Forced : Нет

Меню
00:00:00.000 : en:Chapter 1
00:05:28.703 : en:Chapter 2
00:10:19.244 : en:Chapter 3
00:16:06.299 : en:Chapter 4
00:23:54.141 : en:Chapter 5
00:29:43.824 : en:Chapter 6
00:35:51.066 : en:Chapter 7
00:43:27.897 : en:Chapter 8
00:47:06.657 : en:Chapter 9
00:52:50.584 : en:Chapter 10
00:57:59.643 : en:Chapter 11
01:01:18.925 : en:Chapter 12
01:09:01.346 : en:Chapter 13
01:15:45.374 : en:Chapter 14
01:22:58.140 : en:Chapter 15
01:32:03.560 : en:Chapter 16
Источник http://blator.org

Трекер:  [ 14-Июн-2018 00:40 ]

  

Скачать .torrent

Размер .torrent файла 63 KB


Размер: 50.07 GB
Хэш (hash) релиза: 30b1747846cc7cbe33f3e53daadaad27a55a2ab4
Подписка на обновления:

Торренты, похожие на Дедушка легкого поведения Dirty Grandpa скачать торрент

Форум Название Автор Размер S L Добавлен
Зарубежные фильмы 2016-2018 (Новинки зарубежного кино) ·%· Дедушка легкого поведения / Dirty Grandpa (2016) UHD BDRemux 2160p от ExKinoRay | HDR | Dolby Vision | Театральная версия | iTunes Galfimbul 6210629359657.84 GB 0 0 1528970409

13:00

14-Июн-18

Зарубежные фильмы 2016-2018 (Новинки зарубежного кино) ·· Дедушка легкого поведения / Dirty Grandpa (Дэн Мазер / Dan Mazer) [2016, США, комедия, BDRip] [Театральная версия / Theatrical Cut] Dub + Original Eng + Sub Eng Galfimbul 23441549902.18 GB 0 0 1484234909

18:28

12-Янв-17

Зарубежные фильмы 2016-2018 (Новинки зарубежного кино) ·· Дедушка легкого поведения / Dirty Grandpa (Дэн Мазер / Dan Mazer) [2016, США, комедия, BDRip-AVC] [Театральная версия / Theatrical Cut] Dub + Original + Sub (eng) Galfimbul 23210011932.16 GB 0 0 1465424840

01:27

9-Июн-16

Зарубежные фильмы 2016-2018 (Новинки зарубежного кино) ·· Дедушка легкого поведения / Dirty Grandpa (Дэн Мазер / Dan Mazer) [2016, США, комедия, HDRip] [Расширенная версия / Unrated Cut] Dub + Sub Rus Galfimbul 786945836750 MB 0 0 1464359301

17:28

27-Май-16

Зарубежные фильмы 2016-2018 (Новинки зарубежного кино) ·· Дедушка легкого поведения / Dirty Grandpa (Дэн Мазер / Dan Mazer) [2016, США, комедия, BDRip-AVC] [Расширенная версия] Dub + Sub (rus, eng) Galfimbul 15653550291.46 GB 0 0 1464155896

08:58

25-Май-16

Зарубежные фильмы 2016-2018 (Новинки зарубежного кино) ·· Дедушка легкого поведения / Dirty Grandpa (Дэн Мазер / Dan Mazer) [2016, США, комедия, BDRip-AVC] [Расширенная версия] Dub (iTunes) + Sub Galfimbul 781179386745 MB 0 0 1464155791

08:56

25-Май-16

Зарубежные фильмы 2016-2018 (Новинки зарубежного кино) ·· Дедушка легкого поведения / Dirty Grandpa (Дэн Мазер / Dan Mazer) [2016, США, комедия, BDRip 1080p] iTunes Galfimbul 80162133957.47 GB 0 0 1463604161

23:42

18-Май-16

Зарубежные фильмы 2016-2018 (Новинки зарубежного кино) ·· Дедушка легкого поведения / Dirty Grandpa (Дэн Мазер / Dan Mazer) [2016, США, комедия, BDRip 720p] iTunes Galfimbul 73392177326.84 GB 0 0 1462432153

10:09

5-Май-16

Зарубежные фильмы 2016-2018 (Новинки зарубежного кино) ·· Дедушка легкого поведения / Dirty Grandpa (Дэн Мазер / Dan Mazer) [2016, США, комедия, WEB-DLRip] Dub [iTunes] Galfimbul 15804088321.47 GB 0 0 1462260958

10:35

3-Май-16

Зарубежные фильмы 2016-2018 (Новинки зарубежного кино) ·· Дедушка легкого поведения / Dirty Grandpa (Дэн Мазер / Dan Mazer) [2016, США, комедия, WEB-DL 1080p] iTunes Galfimbul 42023721903.91 GB 0 0 1462227160

01:12

3-Май-16

Еще никто не оставлял запись к записи скачать торрент Дедушка легкого поведения Dirty Grandpa . Будь первым!

!Обратная связь