Nu Break / Progressive Breaks | Brenton Thwaites | Der Hauptmann (2018)

Скачать через торрент Тренер Фильм бесплатно в хорошем качестве torrent

Скачивайте на UnionPeer.org фильмы через торрент без регистрации. Новинки кино в хорошем качестве через торрент. На UnionPeer.org можно скачать через торрент фильмы 2014 и 2015 годов. Самые новые фильмы.

Скачать торрент Тренер бесплатно через .torrent фильм мультфильм сериал

Статистика раздачи
Размер:  4.69 GB   |    Зарегистрирован:  2 месяца 6 дней   |    .torrent скачан:  372 раза   |   
Раздают:  1  
   
загрузка...
 
Автор Сообщение

Galfimbul

avatar Galfimbul


Тренер



[b]Год выхода:
2018
Жанр: Драма, спорт
Режиссер: Данила Козловский
В ролях: Данила Козловский, Владимир Ильин, Андрей Смоляков, Ольга Зуева, Ирина Горбачёва, Виктор Вержбицкий, Мария Лобанова, Павел Ворожцов, Игорь Гордин, Александр Ильин

О фильме:
Футболист национальной сборной Юрий Столешников в ответственный момент не забивает пенальти. После досадной ошибки Столешников покидает сборную, завершает карьеру и становится тренером маленькой провинциальной команды. Именно с этим клубом Столешникову предстоит совершить чудо и вновь поверить в себя.

Страна: Россия
Студия: DK Entertainment, Кинослово, Студия Тритэ
Продолжительность: 02:12:22
Перевод: Не требуется (русский) iTunes

Файл
Кодек: H.264
Качество: WEB-DL 1080p | iTunes
Видео: AVC/H.264, 1920x804, ~4690 kbps, 25 fps
Звук: Аудио : AC3, 6 ch, 384 Kbps
Субтитры: Отсутствуют
Общее
Уникальный идентификатор : 33063215503011944955586507944710103046 (0x18DFBE61C7922E819A3589D8296FE006)
Полное имя : TRENER.2018.WEB-DL.1080p.mkv
Формат : Matroska
Версия формата : Version 4 / Version 2
Размер файла : 4,69 Гбайт
Продолжительность : 2 ч. 12 м.
Общий поток : 5076 Кбит/сек
Дата кодирования : UTC 2018-06-13 20:59:26
Программа кодирования : mkvmerge v23.0.0 ('The Bride Said No') 64-bit
Библиотека кодирования : libebml v1.3.6 + libmatroska v1.4.9

Видео
Идентификатор : 1
Формат : AVC
Формат/Информация : Advanced Video Codec
Профиль формата : [email protected]
Настройки формата : CABAC / 5 Ref Frames
Параметр CABAC формата : Да
Параметр RefFrames формата : 5 кадров
Идентификатор кодека : V_MPEG4/ISO/AVC
Продолжительность : 2 ч. 12 м.
Битрейт : 4690 Кбит/сек
Ширина : 1920 пикселей
Высота : 804 пикселя
Соотношение сторон : 2,40:1
Режим частоты кадров : Постоянный
Частота кадров : 25,000 кадров/сек
Цветовое пространство : YUV
Субдискретизация насыщенности : 4:2:0
Битовая глубина : 8 бит
Тип развёртки : Прогрессивная
Бит/(Пиксели*Кадры) : 0.122
Размер потока : 4,34 Гбайт (92%)
Язык : Russian
Default : Да
Forced : Нет
Цветовой диапазон : Limited
Основные цвета : BT.709
Характеристики трансфера : BT.709
Коэффициенты матрицы : BT.709

Аудио
Идентификатор : 2
Формат : AC-3
Формат/Информация : Audio Coding 3
Идентификатор кодека : A_AC3
Продолжительность : 2 ч. 12 м.
Вид битрейта : Постоянный
Битрейт : 384 Кбит/сек
Каналы : 6 каналов
Расположение каналов : Front: L C R, Side: L R, LFE
Частота : 48,0 КГц
Частота кадров : 31,250 кадров/сек (1536 SPF)
Битовая глубина : 16 бит
Метод сжатия : С потерями
Размер потока : 364 Мбайт (8%)
Язык : Russian
ServiceKind : Complete Main
Default : Да
Forced : Нет
Источник http://blator.org

Трекер:  [ 14-Июн-2018 00:30 ]

  

Скачать .torrent

Размер .torrent файла 24 KB


Размер: 4.69 GB
Хэш (hash) релиза: 386f9304a57a2b2f6b2f6cd23a0b55d5021f1777
Подписка на обновления:

Торренты, похожие на Тренер скачать торрент

Форум Название Автор Размер S L Добавлен
Российские фильмы 2016-2018 (Новинки русского кино) ·%· Тренер (2018) HDTVRip-AVC от Files-x Galfimbul 14690701511.37 GB 3 0 1532354409

17:00

23-Июл-18

Российские фильмы 2016-2018 (Новинки русского кино) ·%· Тренер (2018) HDTVRip от Files-x Galfimbul 22066790402.06 GB 0 0 1531692011

01:00

16-Июл-18

Российские фильмы 2016-2018 (Новинки русского кино) ·· Тренер (2018) WEB-DLRip от Scarabey | iTunes Galfimbul 835393536797 MB 0 0 1529166015

19:20

16-Июн-18

Российские фильмы 2016-2018 (Новинки русского кино) ·· Тренер (2018) WEB-DLRip-AVC | iTunes Galfimbul 15580471681.45 GB 5 0 1529161852

18:10

16-Июн-18

Российские фильмы до 2016 ·· Тренер (Данила Козловский) [2018, Россия, драма, спорт, WEB-DL 1080p] Original Rus Galfimbul 50397106664.69 GB 0 0 1529118109

06:01

16-Июн-18

Российские фильмы 2016-2018 (Новинки русского кино) ·· Тренер (2018) WEB-DLRip от Scarabey | iTunes Galfimbul 15531909121.45 GB 2 0 1529089613

22:06

15-Июн-18

Российские фильмы 2016-2018 (Новинки русского кино) ·· Тренер (2018) WEB-DLRip от Scarabey | iTunes Galfimbul 23382179842.18 GB 2 0 1529087590

21:33

15-Июн-18

Российские фильмы до 2016 ·· Тренер (Данила Козловский) [2018, драма, спорт, WEB-DLRip-AVC] Galfimbul 15142343951.41 GB 0 0 1529070848

16:54

15-Июн-18

Российские фильмы 2016-2018 (Новинки русского кино) ·· Тренер (2018) WEB-DLRip от Generalfilm | КПК | iTunes Galfimbul 527938780503 MB 0 0 1529010030

00:00

15-Июн-18

Российские фильмы до 2016 ·%· Тренер (Данила Козловский) [2018, драма, спорт, WEB-DLRip] Galfimbul 15711293441.46 GB 2 0 1528993449

19:24

14-Июн-18

Российские фильмы 2016-2018 (Новинки русского кино) ·%· Тренер (2018) WEB-DLRip от GeneralFilm | iTunes Galfimbul 11710914561.09 GB 0 0 1528990908

18:41

14-Июн-18

Российские фильмы 2016-2018 (Новинки русского кино) ·%· Тренер (2018) WEB-DLRip-AVC от ExKinoRay | iTunes Galfimbul 782870665747 MB 0 0 1528986195

17:23

14-Июн-18

Российские фильмы 2016-2018 (Новинки русского кино) ·%· Тренер (2018) WEB-DLRip-AVC от OlLanDGroup | iTunes Galfimbul 23389651922.18 GB 0 0 1528962157

10:42

14-Июн-18

Российские фильмы 2016-2018 (Новинки русского кино) ·%· Тренер (2018) WEB-DL 720p | iTunes Galfimbul 43422556574.04 GB 0 0 1528947121

06:32

14-Июн-18

Российские фильмы до 2016 ·%· Тренер (Данила Козловский) [2018, драма, спорт, WEB-DLRip] Galfimbul 23433072642.18 GB 0 0 1528943049

05:24

14-Июн-18

Российские фильмы 2016-2018 (Новинки русского кино) ·%· Тренер (2018) WEB-DLRip от MegaPeer | iTunes Galfimbul 23433072642.18 GB 0 0 1528928445

01:20

14-Июн-18

Российские фильмы 2016-2018 (Новинки русского кино) ·%· Тренер (2018) WEB-DLRip от MegaPeer | iTunes Galfimbul 15683502081.46 GB 0 0 1528925929

00:38

14-Июн-18

Зарубежные фильмы до 2016 ·· Тренер / McFarland, USA (Ники Каро / Niki Caro) [2015, США, Драма, биография, спорт, DVD9] R5 MVO + Sub Rus + Original Eng Galfimbul 70829711366.6 GB 0 0 1525451455

19:30

4-Май-18

Зарубежные фильмы до 2016 ·· Тренер / McFarland, USA (Ники Каро / Nici Caro) [2015, США, драма, биография, спорт, SATRip] [Open Matte] MVO + Original (Eng) + MVO (Kaz) Galfimbul 23525683202.19 GB 0 0 1506592870

13:01

28-Сен-17

Еще никто не оставлял запись к записи скачать торрент Тренер . Будь первым!

!Обратная связь