Full TV Series Arthur Cartoon | Anne-Marie - 2002 | No Home for Young Man (2018)

Скачать через торрент Величайшие моменты в истории футбола Фильм бесплатно в хорошем качестве torrent

Скачивайте на UnionPeer.org фильмы через торрент без регистрации. Новинки кино в хорошем качестве через торрент. На UnionPeer.org можно скачать через торрент фильмы 2014 и 2015 годов. Самые новые фильмы.

Скачать торрент Величайшие моменты в истории футбола бесплатно через .torrent фильм мультфильм сериал

Статистика раздачи
Размер:  3.53 GB   |    Зарегистрирован:  2 месяца 4 дня   |    .torrent скачан:  52 раза   |   
Раздают:  1  
   
загрузка...
 
Автор Сообщение

Galfimbul

avatar Galfimbul


Величайшие моменты в истории футбола (История футбола) (5 серий из 5) / History of Football

Дата/Год выпуска: 2018
Страна: США, A&E Television Networks, GOALHANGER FilMS
Жанр: Документальный, спорт, футбол, история, познавательный
Продолжительность: 3 x ~ 00:44:00
Перевод: Студийный (одноголосый закадровый)
Оригинальная аудиодорожка: английский
Телеканал: History Channel

Описание: О самых ярких моментах в истории футбола: мы вспоминаем легендарные матчи лучших сборных мира и встречаемся с крупнейшими звездами мирового футбола.
Тренеры, игроки, звезды прошлых лет, спортивные журналисты и историки поделятся с вами своими воспоминаниями.

Доп. информация: Авторство релиза - alf62


качество: HDTVRip
формат: AVI
Видео: 720x400 (1.80:1), 25 fps, XviD build 73 ~1898 kbps avg, 0.26 bit/pixel
Аудио: Русский, 48 kHz, AC3 Dolby Digital, 2/0 (L,R) ch, ~192.00 kbps avg
Аудио 2: Английский, 48 kHz, AC3 Dolby Digital, 2/0 (L,R) ch, ~192.00 kbps avg
1. Пеле, Аргентина и диктаторы / Pele, Argentina and the Dictators
2. Принесите мне голову Диего Марадоны / Bring me the Head of Diego Maradona
3. Слезы в Турине. Италия, 1990 / Return to Turin, Italia '90
4. Три мушкетера. Франция, 1998 / The Three Musketeers France '98
5. 7 голов, которые потрясли мир / 7 Goals that Shook the World
ОбщееПолное имя : E:\Запись\Величайшие моменты в истории футбола\History.of.Football.2018.XviD.HDTVRip.alf62\1.Pele.Argentina.and..the.Dictators.2018.XviD.HDTVRip.alf62.aviФормат : AVIФормат/Информация : Audio Video InterleaveРазмер файла : 724 МбайтПродолжительность : 44 м.Общий поток : 2298 Кбит/секПрограмма кодирования : VirtualDubModRus 1.5.10.2 (build 2542/release)Библиотека кодирования : VirtualDubMod build 2542/release

ВидеоИдентификатор : 0Формат : MPEG-4 VisualПрофиль формата : Advanced [email protected]Параметр BVOP формата : 2Параметр QPel формата : НетПараметр GMC формата : Без точки переходаПараметр матрицы формата : Default (MPEG)Идентификатор кодека : XVIDИдентификатор кодека/Подсказка : XviDПродолжительность : 44 м.Битрейт : 1900 Кбит/секШирина : 720 пикселейВысота : 400 пикселейСоотношение сторон : 16:9Частота кадров : 25,000 кадров/секЦветовое пространство : YUVСубдискретизация насыщенности : 4:2:0Битовая глубина : 8 битТип развёртки : ПрогрессивнаяМетод сжатия : С потерямиБит/(Пиксели*Кадры) : 0.264Размер потока : 599 Мбайт (83%)Библиотека кодирования : XviD 73

Аудио #1Идентификатор : 1Формат : AC-3Формат/Информация : Audio Coding 3Расширение режима : CM (complete main)Параметр Endianness формата : BigИдентификатор кодека : 2000Продолжительность : 44 м.Вид битрейта : ПостоянныйБитрейт : 192 Кбит/секКаналы : 2 каналаРасположение каналов : Front: L RЧастота : 48,0 КГцБитовая глубина : 16 битМетод сжатия : С потерямиРазмер потока : 60,5 Мбайт (8%)Выравнивание : Разделение по промежуткамПродолжительность промежутка : 40 мс. (1,00 видеокадр)Время предзагрузки промежутка : 500 мс.

Аудио #2Идентификатор : 2Формат : AC-3Формат/Информация : Audio Coding 3Расширение режима : CM (complete main)Параметр Endianness формата : BigИдентификатор кодека : 2000Продолжительность : 44 м.Вид битрейта : ПостоянныйБитрейт : 192 Кбит/секКаналы : 2 каналаРасположение каналов : Front: L RЧастота : 48,0 КГцБитовая глубина : 16 битМетод сжатия : С потерямиРазмер потока : 60,5 Мбайт (8%)Выравнивание : Разделение по промежуткамПродолжительность промежутка : 40 мс. (1,00 видеокадр)Время предзагрузки промежутка : 500 мс.


Трекер:  [ 13-Июн-2018 22:42 ]

  

Скачать .torrent

Размер .torrent файла 18 KB


Размер: 3.53 GB
Хэш (hash) релиза: 20958a4519ae67d16bc152c9b7f4eddeb5b9e8fd
Подписка на обновления:

Еще никто не оставлял запись к записи скачать торрент Величайшие моменты в истории футбола . Будь первым!

!Обратная связь