Australian Open 2017 1R S Wawrinka - M Klizan ts | Murdoch Mysteries | Mentions Légales

Скачать через торрент Русское лето большого футбола Фильм бесплатно в хорошем качестве torrent

Скачивайте на UnionPeer.org фильмы через торрент без регистрации. Новинки кино в хорошем качестве через торрент. На UnionPeer.org можно скачать через торрент фильмы 2014 и 2015 годов. Самые новые фильмы.

Скачать торрент Русское лето большого футбола бесплатно через .torrent фильм мультфильм сериал

Статистика раздачи
Размер:  745 MB   |    Зарегистрирован:  11 дней   |    .torrent скачан:  31 раз   |   
Раздают:  1  
   
загрузка...
 
Автор Сообщение

Galfimbul

avatar Galfimbul


Русское лето большого футбола

Страна: Россия
Студия: Первый канал
Жанр: Документальный, спорт
Год выпуска: 2018
Продолжительность: 00:52:12
Режиссёр: Евгения Гончар

Описание: Никакие другие глобальные события, даже Олимпиады, не вызывают такого мирового интереса, такого ажиотажа, как Чемпионаты мира по футболу! Уже не первый месяц от Австралии до Мексики — это тема номер 1. И в центре абсолютного мирового внимания — главные звезды мирового футбола. За право принять у себя мировой футбольный Чемпионат борются сразу несколько стран. Ничего удивительного. Ведь этот Чемпионат — витрина, на которую в течение целого месяца с огромным интересом смотрит весь мир. В ближайшие недели, и только благодаря футбольному Чемпионату, в Россию приедут полтора миллиона иностранных туристов. 4 года назад, во время Олимпийских игр в Сочи, — Россия показала себя с самой выгодной стороны. Нет оснований сомневаться, что и Чемпионат мира по футболу мы проведем лучший в истории.

Доп. информация:
Автор релиза -
Источник - HDTV 1080i TS - моя запись с канала Первый HD от 12.06.2018

Сэмпл: http://yadi.sk/i/XYNIPnoi3XqH9n

Рекламы нет!

Качество видео: HDTVRip
Формат видео: AVI

Видео: XviD, 720x400 (16:9), 25.000 fps, 1786 kbps, 0.248 bit/pixel
Аудио: Русский AC3, 48000 Гц, 2ch, 224 kbps
ОбщееПолное имя : D:\Русское.лето.большого.футбола.2018.HDTVRip-ylnian.aviФормат : AVIФормат/Информация : Audio Video InterleaveРазмер файла : 745 МбайтПродолжительность : 51 м. 35 с.Общий поток : 2020 Кбит/секПрограмма кодирования : VirtualDubMod 1.5.10.3 | www.virtualdub-fr.org || (build 2550/release)Библиотека кодирования : VirtualDubMod build 2550/release

ВидеоИдентификатор : 0Формат : MPEG-4 VisualПрофиль формата : Advanced [email protected]Настройки формата : BVOP1Параметр BVOP формата : 1Параметр QPel формата : НетПараметр GMC формата : Без точки переходаПараметр матрицы формата : Default (MPEG)Идентификатор кодека : XVIDИдентификатор кодека/Подсказка : XviDПродолжительность : 51 м. 35 с.Битрейт : 1786 Кбит/секШирина : 720 пикселейВысота : 400 пикселейСоотношение сторон : 16:9Частота кадров : 25,000 кадров/секЦветовое пространство : YUVСубдискретизация насыщенности : 4:2:0Битовая глубина : 8 битТип развёртки : ПрогрессивнаяМетод сжатия : С потерямиБит/(Пиксели*Кадры) : 0.248Размер потока : 659 Мбайт (88%)Библиотека кодирования : XviD 67

АудиоИдентификатор : 1Формат : AC-3Формат/Информация : Audio Coding 3Идентификатор кодека : 2000Продолжительность : 51 м. 35 с.Вид битрейта : ПостоянныйБитрейт : 224 Кбит/секКаналы : 2 каналаРасположение каналов : Front: L RЧастота : 48,0 КГцЧастота кадров : 31,250 кадров/сек (1536 SPF)Битовая глубина : 16 битМетод сжатия : С потерямиРазмер потока : 82,7 Мбайт (11%)Выравнивание : Разделение по промежуткамПродолжительность промежутка : 40 мс. (1,00 видеокадр)Время предзагрузки промежутка : 500 мс.ServiceKind/String : Complete Main


Трекер:  [ 13-Июн-2018 22:42 ]

  

Скачать .torrent

Размер .torrent файла 15 KB


Размер: 745 MB
Хэш (hash) релиза: 33342a515907968d65b2d0968953c6e67a3b2df8
Подписка на обновления:

Торренты, похожие на Русское лето большого футбола скачать торрент

Форум Название Автор Размер S L Добавлен
Документальные фильмы и телепередачи ·%· Русское лето большого футбола (Евгения Гончар) [2018, Россия, Документальный, спорт, HDTV 1080i] Galfimbul 35339711723.29 GB 0 0 1528893388

15:36

13-Июн-18

Еще никто не оставлял запись к записи скачать торрент Русское лето большого футбола . Будь первым!

!Обратная связь