The Wild World Of Batwoman (1966) | Heiter bis tödlich: Hubert und Staller | IMDb: 7.4 HD Cars 3

Скачать через торрент музыку бесплатно без регистрации torrent

Статистика раздачи
Размер:  402 MB   |    Зарегистрирован:  2 месяца 2 дня   |    .torrent скачан:  25 раз   |   
Раздают:  1  
   
загрузка...
 
Автор Сообщение

Galfimbul

avatar Galfimbul


VA - The 30,000ft View

Жанр: Drum'n'bass
Носитель: CD
Страна-производитель диска (релиза): Australia
Год издания: 1997
Издатель (лейбл): Gulp Communications
Номер по каталогу: GCCD001
Аудиокодек: FLAC (*.flac)
Тип рипа: tracks
Битрейт аудио: lossless
Продолжительность: 01:07:04
Источник (релизер): lossless-music (dL)
Наличие сканов в содержимом раздачи: нет
Лог создания рипа: отсутствует

Треклист:

01 The Lords Garden - Birds II (Hatman Remix) 7:01
02 Atone - Love 4:15
03 Nutcase And Papachubba - Floating Inside 6:12
04 Booboo And Mace - Hejaz (Gulp Edit) 6:37
05 Stacey Keene - Aubergine 7:25
06 Soda U - Babydoll 5:31
07 Kiva - Bumble B 5:19
08 Fruitbat - Head Fokka 5:01
09 Friendly - The Adventures Of Shuffles The Oyster 7:38
10 Event Horizon - Shortest Day 4:37
11 Alien Headspace - Great Theme 7:28
AUDIOCHECKER v2.0 beta (build 457) - by Dester - [email protected]~~~~~~~~~~~~~~~~~~~~~~~~~~~~~~~~~~-=== НЕ РЕДАКТИРУЙТЕ ЭТОТ ФАЙЛ! ===-

Путь: ...\VA - The 30,000ft View - (GCCD001)-CD-FLAC-1997

01 -=- 01. The Lords Garden - Birds II (Hatman Remix).flac -=- CDDA (100%)02 -=- 02. Atone - Love.flac -=- CDDA (100%)03 -=- 03. Nutcase And Papachubba - Floating Inside.flac -=- CDDA (100%)04 -=- 04. Booboo And Mace - Hejaz (Gulp Edit).flac -=- CDDA (100%)05 -=- 05. Stacey Keene - Aubergine.flac -=- CDDA (100%)06 -=- 06. Soda U - Babydoll.flac -=- CDDA (100%)07 -=- 07. Kiva - Bumble B.flac -=- CDDA (100%)08 -=- 08. Fruitbat - Head Fokka.flac -=- CDDA (100%)09 -=- 09. Friendly - The Adventures Of Shuffles The Oyster.flac -=- CDDA (100%)10 -=- 10. Event Horizon - Shortest Day.flac -=- CDDA (100%)11 -=- 11. Alien Headspace - Great Theme.flac -=- CDDA (100%)

Сводка 100,00% CDDA

99138980
foobar2000 1.3.15 / Dynamic Range Meter 1.1.1log date: 2018-06-10 18:47:42

--------------------------------------------------------------------------------Analyzed: Alien Headspace / The 30 000Ft View (1) Atone / The 30 000Ft View (2) Booboo And Mace / The 30 000Ft View (3) Event Horizon / The 30 000Ft View (4) Friendly / The 30 000Ft View (5) Fruitbat / The 30 000Ft View (6) Kiva / The 30 000Ft View (7) Nutcase And Papachubba / The 30 000Ft View (8) Soda U / The 30 000Ft View (9) Stacey Keene / The 30 000Ft View (10) The Lords Garden / The 30 000Ft View (11)--------------------------------------------------------------------------------

DR Peak RMS Duration Track--------------------------------------------------------------------------------DR8 -0.10 dB -8.85 dB 7:28 11-Great ThemeDR9 -0.10 dB -10.82 dB 4:15 02-LoveDR7 -0.10 dB -8.88 dB 6:37 04-Hejaz (Gulp Edit)DR8 -0.10 dB -9.87 dB 4:37 10-Shortest DayDR6 -0.10 dB -7.59 dB 7:38 09-The Adventures Of Shuffles The OysterDR10 -0.10 dB -11.73 dB 5:01 08-Head FokkaDR11 -0.10 dB -13.15 dB 5:19 07-Bumble BDR8 -0.10 dB -10.35 dB 6:12 03-Floating InsideDR8 -0.10 dB -9.31 dB 5:31 06-BabydollDR8 -0.10 dB -11.38 dB 7:25 05-AubergineDR6 -0.10 dB -9.78 dB 7:01 01-Birds II (Hatman Remix)--------------------------------------------------------------------------------

Number of tracks: 11Official DR value: DR8

Samplerate: 44100 HzChannels: 2Bits per sample: 16Bitrate: 894 kbpsCodec: FLAC================================================================================


Трекер:  [ 13-Июн-2018 22:01 ]

  

Скачать .torrent

Размер .torrent файла 17 KB


Размер: 402 MB
Хэш (hash) релиза: bec474e7d713efd6fd7bf6f889aad917e82b5d6c

Еще никто не оставлял запись к записи скачать торрент . Будь первым!

!Обратная связь