New Topic | The Age of Shadows - VOSTFR | 1, 2, 3 Voleurs

Скачать через торрент Полдарк Poldark Фильм бесплатно в хорошем качестве torrent

Скачивайте на UnionPeer.org фильмы через торрент без регистрации. Новинки кино в хорошем качестве через торрент. На UnionPeer.org можно скачать через торрент фильмы 2014 и 2015 годов. Самые новые фильмы.

Скачать торрент Полдарк Poldark бесплатно через .torrent фильм мультфильм сериал

Статистика раздачи
Размер:  701 MB   |    Зарегистрирован:  2 месяца 5 дней   |    .torrent скачан:  27 раз   |   
Раздают:  1  
   
загрузка...
 
Автор Сообщение

Galfimbul

avatar Galfimbul


Полдарк / Poldark
Год выпуска: 2018
Страна: Великобритания
Жанр: Драма, мелодрама
Продолжительность: 00:43:00
Перевод: Любительский (многоголосый закадровый) - BaibaKo
Режиссёр: Эдвард Базалгетт, Уильям МакГрегор
В ролях: Эйдан Тёрнер, Элинор Томлинсон, Хейда Рид, Кайл Соллер, Руби Бенталл, Бети Эдни, Джек Фартинг, Фил Дэвис, Уоррен Кларк и др.
Описание: Росс Полдарк возвращается домой с войны, надеясь на спокойную и счастливую жизнь в кругу семьи, и обнаруживает, что отец умер, а домом управляют слуги-пьяницы. Невеста Росса, Элизабет, аристократка и красавица, думая, что он погиб в Америке во время Войны за независимость, вышла замуж за его двоюродного брата. Медные рудники, принадлежавшие семье Полдарк, стали вожделенным объектом для врагов. Дуэли, контрабанда, планируемые убийства - всё выходит на поверхность, как только Росс берётся за то, чтобы вернуть своё утраченное состояние. В жестокой борьбе он также обретает истинную любовь в неуправляемой, решительной и энергичной Демелзе. Эта волнующая сага рассказывает о глубоких разногласиях британского общества в преддверии индустриализации и разыгрывается на фоне живописного горного Корнуэлла. По мотивам цикла исторически-авантюрных романов Уинстона Грэхема.

Сэмпл: http://multi-up.com/1201447

Качество: HDTVRip
Формат: AVI
Видео: 720x400 (16:9), 25.000 fps, XviD build 73, 1378 Kbps, 0.20 bit/pixel
Аудио 1: MP3, 48 kHz, 2 ch, 128 kbps, CBR - Rus
Аудио 2: MP3, 48 kHz, 2 ch, 128 kbps, CBR - Eng
Субтитры: Отсутствуют
Реклама: Отсутствует
General
Complete name : Downloads\Poldark (Season 04) BaibaKo\poldark.2015.s04e01.HDTVRip .Rus.Eng.BaibaKo.avi
Format : AVI
Format/Info : Audio Video Interleave
File size : 701 MiB
Duration : 59mn 27s
Overall bit rate : 1 648 Kbps
Writing application : VirtualDubMod 1.5.10.3 | www.virtualdub-fr.org || (build 2550/release)
Writing library : VirtualDubMod build 2550/release
Video #0
ID : 0
Format : MPEG-4 Visual
Format profile : Advanced [email protected]
Format settings, BVOP : 1
Format settings, QPel : No
Format settings, GMC : No warppoints
Format settings, Matrix : Custom
Codec ID : XVID
Codec ID/Hint : XviD
Duration : 59mn 27s
Bit rate : 1 378 Kbps
Width : 720 pixels
Height : 400 pixels
Display aspect ratio : 16:9
Frame rate : 25.000 fps
Color space : YUV
Chroma subsampling : 4:2:0
Bit depth : 8 bits
Scan type : Progressive
Compression mode : Lossy
Bits/(Pixel*Frame) : 0.191
Stream size : 586 MiB (84%)
Writing library : XviD 73
Audio #1
ID : 1
Format : MPEG Audio
Format version : Version 1
Format profile : Layer 3
Mode : Joint stereo
Mode extension : MS Stereo
Codec ID : 55
Codec ID/Hint : MP3
Duration : 59mn 27s
Bit rate mode : Constant
Bit rate : 128 Kbps
Channel(s) : 2 channels
Sampling rate : 48.0 KHz
Compression mode : Lossy
Stream size : 54.4 MiB (8%)
Alignment : Aligned on interleaves
Interleave, duration : 40 ms (1.00 video frame)
Interleave, preload duration : 504 ms
Audio #2
ID : 2
Format : MPEG Audio
Format version : Version 1
Format profile : Layer 3
Mode : Joint stereo
Mode extension : MS Stereo
Codec ID : 55
Codec ID/Hint : MP3
Duration : 59mn 27s
Bit rate mode : Constant
Bit rate : 128 Kbps
Channel(s) : 2 channels
Sampling rate : 48.0 KHz
Compression mode : Lossy
Stream size : 54.4 MiB (8%)
Alignment : Aligned on interleaves
Interleave, duration : 40 ms (1.00 video frame)
Interleave, preload duration : 504 ms
(1) остановить скачивание,
(2) удалить старый торрент у себя из клиента (старые серии удалять не надо),
(3) скачать новый торрент и запустить его у себя в клиенте вместо старого, при этом указать клиенту путь в старую папку куда и должно происходить скачивание новых серий.
Ваш клиент при этом должен произвести хеширование (проверку) старой папки (если не производит сам - помогите ему сделать это), и будет докачивать только те серии которых у вас ещё нет. Старые серии при этом не удаляются, а продолжают раздаваться!
Eсли вы уже удалили старые серии, то предотвратить повторную закачку старых серий можно, отжав галочку в соответсвующих местах при запуске нового торрента. По возможности, желательно не удалять старые серии как можно дольше чтобы релизёр не столько продолжал раздавать старые серии, а смог сконцентрироваться на новых.
Предыдущие и альтернативные раздачи

Трекер:  [ 13-Июн-2018 20:48 ]

  

Скачать .torrent

Размер .torrent файла 14 KB


Размер: 701 MB
Хэш (hash) релиза: dfa5952740796e3b0668972e49b8fb3aa2ec3444
Подписка на обновления:

Торренты, похожие на Полдарк Poldark скачать торрент

Форум Название Автор Размер S L Добавлен
Зарубежные сериалы ·%· Полдарк / Poldark / Сезон: 4 / Серии: 1 из 8 (Джосс Эгнью) [2018, Великобритания, драма, мелодрама, история, HDTV 1080p] MVO (BaibaKo) + Original + Sub Galfimbul 16655931011.55 GB 0 0 1528892286

15:18

13-Июн-18

Еще никто не оставлял запись к записи скачать торрент Полдарк Poldark . Будь первым!

!Обратная связь