The_Samsara_Crew-One_Of_Us_(Samsara_Beach_Radio_Show)-SAT-17-06-2018-LFA | Into.the.Badlands.S03E08.HDTV.x264-SVA | NASCAR.Xfinity.Series.2018.06.17.Iowa.iNTERNAL.720p.HDTV.h264-DHD

Скачать через торрент Парень как Джэйк A Kid Like Jake Фильм бесплатно в хорошем качестве torrent

Скачивайте на UnionPeer.org фильмы через торрент без регистрации. Новинки кино в хорошем качестве через торрент. На UnionPeer.org можно скачать через торрент фильмы 2014 и 2015 годов. Самые новые фильмы.

Скачать торрент Парень как Джэйк A Kid Like Jake бесплатно через .torrent фильм мультфильм сериал

Статистика раздачи
Размер:  1.03 GB   |    Зарегистрирован:  11 дней   |    .torrent скачан:  26 раз   |   
Раздают:  1  
   
загрузка...
 
Автор Сообщение

Galfimbul

avatar Galfimbul


Парень как Джэйк /A Kid Like Jake

Год выхода: 2018
Жанр: Драма
Режиссер: Сайлэс Ховард
В ролях: Приянка Чопра, Энн Дауд, Клер Дэйнс, Шонетт Рене Уилсон, Джим Парсонс, Октавия Спенсер, Эми Ландекер, Аасиф Мандви, Джулия Тейлор Росс, Лев Джеймс Дэвис и другие
О фильме:
Четырёхлетний Джэйк — особенный ребёнок. Во-первых, он развит не по годам, а во-вторых, ему нравятся наряды принцесс. Это может стать «визитной карточкой» мальчика при поступлении в престижный детский сад, но чрезмерное рвение родителей угрожает семейному счастью.



Страна: США, Bankside Films, Burn Later Productions, Double Nickel Entertainment
Продолжительность: 01:29:43
Перевод: Любительский (двухголосый закадровый) | HiWay Grope

Файл
Кодек: XviD
Качество: WEBRip
Видео: 720x384, 25 fps, ~1255 kbps, 0.18 bit/pixel
Звук:
Аудио rus: AC3, 48 kHz, 6 ch, 384 Kbps
Субтитры: отсутствуют

Реклама: присутствует

Семпл
General
Complete name : E:A.Kid.Like.Jake.2018.WEBRip.HiWayGropeA.Kid.Like.Jake.2018.WEBRip.HiWayGrope.avi
Format : AVI
Format/Info : Audio Video Interleave
File size : 1.03 GiB
Duration : 1h 29mn
Overall bit rate : 1 649 Kbps
Writing application : VirtualDubMod 1.5.10.2 (build 2540/release)
Writing library : VirtualDubMod build 2540/release

Video
ID : 0
Format : xvid
Codec ID : xvid
Duration : 1h 29mn
Bit rate : 1 255 Kbps
Width : 720 pixels
Height : 384 pixels
Display aspect ratio : 1.85:1
Frame rate : 25.000 fps
Bits/(Pixel*Frame) : 0.182
Stream size : 806 MiB (76%)

Audio
ID : 1
Format : AC-3
Format/Info : Audio Coding 3
Mode extension : CM (complete main)
Format settings, Endianness : Big
Codec ID : 2000
Duration : 1h 29mn
Bit rate mode : Constant
Bit rate : 384 Kbps
Channel(s) : 6 channels
Channel positions : Front: L C R, Side: L R, LFE
Sampling rate : 48.0 KHz
Frame rate : 31.250 fps (1536 spf)
Compression mode : Lossy
Stream size : 246 MiB (23%)
Alignment : Split accross interleaves
Interleave, duration : 40 ms (1.00 video frame)
Interleave, preload duration : 500 ms
Релиз от: HiWay Grope
Источник http://blator.org

Трекер:  [ 13-Июн-2018 20:40 ]

  

Скачать .torrent

Размер .torrent файла 11 KB


Размер: 1.03 GB
Хэш (hash) релиза: bac7a513faf03360540401faf1db4d41043921ee
Подписка на обновления:

Торренты, похожие на Парень как Джэйк A Kid Like Jake скачать торрент

Форум Название Автор Размер S L Добавлен
Зарубежные фильмы 2016-2018 (Новинки зарубежного кино) ·%· Парень как Джэйк / A Kid Like Jake (2018) WEBRip 720p | L2 Galfimbul 31177012282.9 GB 0 0 1528910477

20:21

13-Июн-18

Еще никто не оставлял запись к записи скачать торрент Парень как Джэйк A Kid Like Jake . Будь первым!

!Обратная связь